<?xml version="1.0" standalone="no"?>
<!DOCTYPE svg PUBLIC "-//W3C//DTD SVG 1.1//EN" "http://www.w3.org/Graphics/SVG/1.1/DTD/svg11.dtd" >
<svg>
<metadata>
Created by FontForge 20090914 at Mon Apr 17 18:38:07 2017
 By www-data
Copyright c 1992 by CC Font ManipSystems
</metadata>
<defs>
<font id="HelveticaMedium" horiz-adv-x="1065" >
  <font-face 
    font-family="Helvetica Medium"
    font-weight="500"
    font-stretch="normal"
    units-per-em="2048"
    panose-1="2 11 6 0 0 0 0 0 0 0"
    ascent="1638"
    descent="-410"
    x-height="1047"
    cap-height="1450"
    bbox="-133.003 -449.003 2128 1927"
    underline-thickness="50"
    underline-position="-75"
    unicode-range="U+0020-U+2122"
  />
<missing-glyph horiz-adv-x="1536" 
d="M256 0v1280h1024v-1280h-1024zM1248 32v1216h-960v-1216h960z" />
    <glyph glyph-name=".notdef" horiz-adv-x="1536" 
d="M256 0v1280h1024v-1280h-1024zM1248 32v1216h-960v-1216h960z" />
    <glyph glyph-name="space" unicode=" " horiz-adv-x="532" 
 />
    <glyph glyph-name="exclam" unicode="!" horiz-adv-x="531" 
d="M142 1030l67 -631h117l66 631l-1 420h-249v-420zM133 0h267v250h-267v-250z" />
    <glyph glyph-name="quotedbl" unicode="&#x22;" horiz-adv-x="844" 
d="M142 877h204v573h-204v-573zM494 877h205v573h-205v-573z" />
    <glyph glyph-name="dollar" unicode="$" 
d="M580 623c80 -23.333 141.333 -51.333 184 -84s64 -83.334 64 -152.001c0 -147.333 -82.667 -227.666 -248 -240.999v477zM8 441c0 -99.333 20.333 -184.326 61 -254.993s97.334 -124.334 170.001 -161.001c73.333 -37.333 158.333 -56.666 255 -57.999v-158h86v158
c69.333 3.33301 132.666 14.833 189.999 34.5s107.333 48 150 85s75.667 83.5 99 139.5c24 56 36 120.667 36 194c0 91.333 -21.333 166.666 -64 225.999s-98 105.666 -166 138.999s-149.667 62.666 -245 87.999v428c138 0 209 -71.667 213 -215h227
c0 86 -19 158.667 -57 218s-90.5 103.666 -157.5 132.999s-142.167 44 -225.5 44v160h-86v-160c-80 0 -154.667 -15.667 -224 -47c-69.333 -30.667 -124.833 -76.334 -166.5 -137.001s-62.5 -132.334 -62.5 -215.001c0 -91.333 21.667 -166 65 -224
c42 -58.667 94.833 -103.667 158.5 -135s140.167 -60 229.5 -86v-491c-172 7.33301 -258 105.666 -258 294.999h-228zM494 891.007c-148.667 34.667 -223 105 -223 211c0 132.667 74.333 199 223 199v-410z" />
    <glyph glyph-name="percent" unicode="%" horiz-adv-x="1966" 
d="M502 -47h156l243 479l535 1039h-154l-250 -486zM1485 -29c73.333 0 135.667 19.002 187 57.002s90 87.667 116 149s39 126.666 39 195.999c0 70 -13 136.167 -39 198.5s-65 112.833 -117 151.5s-114 58 -186 58c-70.667 0 -131.5 -19.333 -182.5 -58
s-89.333 -89.334 -115 -152.001s-38.5 -128.667 -38.5 -198c0 -50.667 7.16699 -100.167 21.5 -148.5s35.5 -91.5 63.5 -129.5c28.667 -38 64 -68 106 -90c42.667 -22.667 91 -34 145 -34zM1333 373.002c0 181.333 50.667 272 152 272c105.333 0 158 -90.667 158 -272
c0 -82 -12.667 -147.667 -38 -197c-25.333 -48.667 -65.333 -73 -120 -73c-101.333 0 -152 90 -152 270zM477.001 641.002c73.333 0 135.668 19 187.001 57c52 37.333 90.833 86.833 116.5 148.5s38.5 127.167 38.5 196.5c0 70 -13 136 -39 198
c-26 62.667 -65 113.167 -117 151.5s-114 57.5 -186 57.5c-70.667 0 -131.334 -19.167 -182.001 -57.5s-89 -88.833 -115 -151.5c-25.333 -63.333 -38 -129.333 -38 -198c0 -70 12.667 -135.667 38 -197s63.333 -110.833 114 -148.5s111.667 -56.5 183 -56.5zM325.003 1043
c0 181.333 50.667 272 152 272c105.333 0 158 -90.667 158 -272c0 -82.667 -12.667 -148.5 -38 -197.5s-65.333 -73.5 -120 -73.5c-101.333 0 -152 90.333 -152 271z" />
    <glyph glyph-name="ampersand" unicode="&#x26;" horiz-adv-x="1295" 
d="M604 1311c42 0 76.166 -16.167 102.499 -48.5s39.5 -72.166 39.5 -119.499c0 -52 -14.333 -95 -43 -129s-71 -69.333 -127 -106l-61 83.5c-17.333 24.333 -32.166 49.166 -44.499 74.499s-18.5 52.333 -18.5 81c0 48 14.5 87.333 43.5 118s65.167 46 108.5 46z
M792.999 316c-10.667 -14 -24.668 -31.3311 -42.001 -51.998s-35.666 -38.834 -54.999 -54.501s-44 -28.834 -74 -39.501s-64.667 -16 -104 -16c-68.667 0 -123.667 21 -165 63s-62 101.667 -62 179c0 40 7 74.333 21 103s32.333 53.5 55 74.5s47.5 39.5 74.5 55.5l68.5 41z
M1045 0.00195312l279.998 -0.000976562l-278 336c64 100 101.333 218 112 354h-198c-4.66699 -74 -20.334 -138.667 -47.001 -194l-219 272c76.667 42.667 139 95 187 157c48.667 62 73 132.667 73 212c0 72.667 -16.667 135.167 -50 187.5s-77.166 91.5 -131.499 117.5
s-113.5 39 -177.5 39c-64.667 0 -124 -14.333 -178 -43s-96.667 -69 -128 -121s-47 -112 -47 -180c0 -56.667 12 -108.334 36 -155.001s60 -101 108 -163c-99.333 -53.333 -179.166 -113.166 -239.499 -179.499s-90.5 -146.166 -90.5 -239.499
c0 -88 19.5 -164.333 58.5 -229s92.833 -114.167 161.5 -148.5s146.334 -51.5 233.001 -51.5c168.667 0 302 63.667 400 191z" />
    <glyph glyph-name="quotesingle" unicode="'" horiz-adv-x="531" 
d="M141 877c76.667 9.33301 137.5 41.167 182.5 95.5s67.5 120.833 67.5 199.5v278h-250v-278h125c0 -108 -41.667 -167.333 -125 -178v-117z" />
    <glyph glyph-name="parenleft" unicode="(" horiz-adv-x="531" 
d="M559 -383c-41.333 70 -77.332 142.167 -107.999 216.5s-56 150 -76 227s-35 155.333 -45 235s-15 158.167 -15 235.5c0 335.333 81.333 652 244 950h-186c-60.667 -95.333 -112.334 -194.333 -155.001 -297s-75.5 -207.5 -98.5 -314.5s-34.5 -214.5 -34.5 -322.5
c0 -122.667 12.167 -238.5 36.5 -347.5s57.833 -210.5 100.5 -304.5c42 -93.333 92.333 -186 151 -278h186z" />
    <glyph glyph-name="parenright" unicode=")" horiz-adv-x="531" 
d="M-29 1481c162.667 -278.667 244 -587.333 244 -926c0 -108.667 -9.16699 -216.834 -27.5 -324.501s-45.5 -213.167 -81.5 -316.5s-81 -202.333 -135 -297h184c62 91.333 115.333 188 160 290c43.333 102 76.5 206.333 99.5 313s34.5 214.334 34.5 323.001
c0 123.333 -12.5 239.666 -37.5 348.999s-59.167 211 -102.5 305c-43.333 94.667 -94.333 189.334 -153 284.001h-185z" />
    <glyph glyph-name="asterisk" unicode="*" horiz-adv-x="713" 
d="M248 1082l-138 -191l109 -80l138 199l141 -199l111 80l-144 191l230 77l-48 134l-219 -89v246h-137v-246l-225 89l-42 -134z" />
    <glyph glyph-name="comma" unicode="," horiz-adv-x="531" 
d="M127 0l140.002 0.000976562c0 -46.667 -12 -88 -36 -124c-23.333 -36.667 -56 -60.334 -98 -71.001v-125c53.333 10 100.166 29.667 140.499 59s72.166 66.666 95.499 111.999c22 44.667 33.667 94.334 35 149.001v275h-277v-275z" />
    <glyph glyph-name="hyphen" unicode="-" horiz-adv-x="756" 
d="M86 445h584v217h-584v-217z" />
    <glyph glyph-name="period" unicode="." horiz-adv-x="531" 
d="M127 0h277v275h-277v-275z" />
    <glyph glyph-name="slash" unicode="/" horiz-adv-x="666" 
d="M-62 -33h213l187 482l391 1032h-219l-180 -479z" />
    <glyph glyph-name="zero" unicode="0" 
d="M535 162c-63.333 0 -114.166 24 -152.499 72s-65.333 112.5 -81 193.5s-23.5 175.5 -23.5 283.5c0 106 7.83301 199 23.5 279s42.667 143.667 81 191s89.166 71 152.499 71c92.667 0 159 -49.333 199 -148c39.333 -98 59 -229 59 -393c0 -166 -20 -299 -60 -399
c-39.333 -100 -105.333 -150 -198 -150zM535 1450c-182 0 -308.999 -72.833 -380.999 -218.5s-108 -319.167 -108 -520.5c0 -92.667 7.33301 -181.334 22 -266.001c14 -84 39 -162.333 75 -235c36 -72 86.333 -129.833 151 -173.5s145 -65.5 241 -65.5
c95.333 0 175.166 21.833 239.499 65.5s114.333 101.667 150 174s60.5 150.5 74.5 234.5c14 84.667 21 173.334 21 266.001c0 201.333 -35.667 374.833 -107 520.5s-197.333 218.5 -378 218.5z" />
    <glyph glyph-name="one" unicode="1" 
d="M77 1002l-0.00195312 182c68.667 0 132.334 7.83301 191.001 23.5s107.834 41 147.501 76s64.5 79.5 74.5 133.5h188v-1417h-250v1002h-351z" />
    <glyph glyph-name="two" unicode="2" 
d="M1012 207h-681.999c9.33301 30 25.333 58 48 84c23.333 26 50 50.333 80 73s72.833 52.334 128.5 89.001l116.5 78c96 68.667 172.167 140.667 228.5 216s84.5 163 84.5 263c0 68.667 -15 136.5 -45 203.5s-79.333 123.167 -148 168.5s-156.667 68 -264 68
c-100.667 0 -187.334 -23.667 -260.001 -71s-127.667 -112.666 -165 -195.999s-56 -178 -56 -284h231c2.66699 112 22.334 198.667 59.001 260c36 62 96.333 93 181 93c88 0 150 -25 186 -75s54 -108.333 54 -175c-1.33301 -66.667 -22.333 -125.834 -63 -177.501
s-94.334 -100.834 -161.001 -147.501l-204 -142c-204.667 -138 -308 -316.333 -310 -535h961v207z" />
    <glyph glyph-name="three" unicode="3" 
d="M436 658c5.33301 0 13.5029 0.333008 24.5029 1s19.5 1 25.5 1c95.333 0 171.333 -17.667 228 -53s85 -99 85 -191c0 -51.333 -11.667 -96.166 -35 -134.499s-55.5 -67.833 -96.5 -88.5s-86.5 -31 -136.5 -31c-85.333 0 -150.833 28.5 -196.5 85.5
s-68.5 130.5 -68.5 220.5l-230 -1c2.66699 -100.667 22.667 -188 60 -262s92.833 -131.5 166.5 -172.5s163.167 -61.5 268.5 -61.5c90 0 173 17.833 249 53.5s136.333 86.167 181 151.5c44.667 66 67 142 67 228c0 91.333 -22.5 168.833 -67.5 232.5
s-106.5 103.5 -184.5 119.5v8c64 23.333 112.333 61.333 145 114c33.333 52 50 114.333 50 187c0 80 -21 149.333 -63 208s-97 103 -165 133c-67.333 29.333 -138 44 -212 44c-70.667 0 -134.334 -12 -191.001 -36s-105.334 -58 -146.001 -102s-72.334 -95.5 -95.001 -154.5
s-35.334 -122.5 -38.001 -190.5h232c0 51.333 8.5 98.666 25.5 141.999s43 78 78 104s78.5 39 130.5 39c40.667 0 77.334 -8.33301 110.001 -25c33.333 -16.667 59 -40 77 -70s27 -64 27 -102c0 -77.333 -27.833 -133.833 -83.5 -169.5s-129.5 -53.5 -221.5 -53.5v-174z" />
    <glyph glyph-name="four" unicode="4" 
d="M1024 518h-180v899h-215l-605 -856v-225h605v-336h215v336h180v182zM625 1143h4v-625h-429z" />
    <glyph glyph-name="five" unicode="5" 
d="M69 641l230.999 0.000976562c33.333 87.333 109 131 227 131c56.667 0 105.167 -14.5 145.5 -43.5s70.833 -67.5 91.5 -115.5c20.667 -47.333 31 -97.333 31 -150s-10 -102 -30 -148c-19.333 -46 -48.666 -83 -87.999 -111s-86.666 -42 -141.999 -42
c-75.333 0 -135.333 20.667 -180 62s-71.334 99.666 -80.001 174.999h-233c4 -90.667 27.667 -168 71 -232c44 -64.667 103 -113.5 177 -146.5s157 -49.5 249 -49.5c106.667 0 196.667 25.667 270 77c73.333 50 127.5 114.167 162.5 192.5s52.5 157.833 52.5 238.5
c0 89.333 -17.667 170.333 -53 243s-86.5 129.667 -153.5 171s-146.167 62 -237.5 62c-46.667 0 -93.667 -9.83301 -141 -29.5s-85 -45.5 -113 -77.5l-5 4l70 361h560v204h-732z" />
    <glyph glyph-name="six" unicode="6" 
d="M545 162c-79.333 0 -141.168 28.999 -185.501 86.999s-66.5 127.333 -66.5 208c0 78.667 22.333 146.667 67 204c44 58 105.667 87 185 87c52.667 0 97.834 -13.667 135.501 -41s66.5 -63.666 86.5 -108.999c18.667 -44.667 28 -91.667 28 -141
c0 -80 -22.333 -149 -67 -207c-44 -58.667 -105 -88 -183 -88zM995.998 1057c-4 76.667 -25.6689 145 -65.002 205s-90.666 106.333 -153.999 139s-131.666 49 -204.999 49c-123.333 0 -224.666 -36.167 -303.999 -108.5s-136.666 -164.5 -171.999 -276.5
s-53 -229.333 -53 -352c0 -110.667 7.83301 -210.167 23.5 -298.5s42.5 -165.5 80.5 -231.5s90.333 -117.833 157 -155.5s149.667 -56.5 249 -56.5c91.333 0 173 21.333 245 64c72 41.333 127.667 99 167 173s59 157 59 249c0 66.667 -10.167 129 -30.5 187
s-49.666 108.667 -87.999 152s-85.5 77.166 -141.5 101.499s-118.667 36.5 -188 36.5c-62.667 0 -120.667 -14.333 -174 -43c-52.667 -29.333 -93.667 -71.666 -123 -126.999l-4 4c4 62.667 9.66699 119.167 17 169.5s20.666 99.833 39.999 148.5s47.666 88.5 84.999 119.5
s84.666 46.5 141.999 46.5c61.333 0 110.5 -17.5 147.5 -52.5s57.5 -82.5 61.5 -142.5h228z" />
    <glyph glyph-name="seven" unicode="7" 
d="M43 1213l734.001 -0.000976562c-100 -112.667 -189 -234.5 -267 -365.5s-141.5 -268.833 -190.5 -413.5s-78.167 -289.334 -87.5 -434.001h250c9.33301 125.333 27.666 244.333 54.999 357c28 112.667 64.5 218.834 109.5 318.501s97.5 194.834 157.5 285.501
c60.667 90 128.667 178 204 264v192h-965v-204z" />
    <glyph glyph-name="eight" unicode="8" 
d="M535 154c-80 0 -144.667 23.335 -194 70.002c-50 47.333 -75 111.333 -75 192c0 77.333 26.5 137.666 79.5 180.999s115.5 65 187.5 65c44.667 0 87.5 -9.5 128.5 -28.5s74.167 -47.333 99.5 -85s38 -81.834 38 -132.501c0 -80.667 -24.667 -144.667 -74 -192
c-48.667 -46.667 -112 -70 -190 -70zM535 -28.998c95.333 0 180.331 18.001 254.998 54.001s133 87.333 175 154c42 67.333 63 146.333 63 237c0 89.333 -22.5 164 -67.5 224s-107.833 101.333 -188.5 124v4c63.333 24 112.333 61 147 111s52 109.333 52 178
c0 82 -17.167 152.5 -51.5 211.5s-84.166 104 -149.499 135s-143.666 46.5 -234.999 46.5c-92.667 0 -171.667 -15.5 -237 -46.5s-115 -75.833 -149 -134.5c-33.333 -58.667 -50 -129.334 -50 -212.001c0 -69.333 16.667 -129 50 -179c34 -50 82 -86.667 144 -110v-4
c-79.333 -22.667 -141.833 -64 -187.5 -124s-68.5 -134.667 -68.5 -224c0 -90.667 21.333 -169.667 64 -237s101.667 -118.833 177 -154.5s161 -53.5 257 -53.5zM534.998 1264c62.667 0 115.001 -19.334 157.001 -58.001c42.667 -38 64 -91 64 -159
c0 -44 -10.5 -81.5 -31.5 -112.5s-48.167 -54.5 -81.5 -70.5s-69.333 -24 -108 -24c-60 0 -111.833 18.333 -155.5 55s-65.5 87.334 -65.5 152.001c0 68.667 20.333 122 61 160c41.333 38 94.666 57 159.999 57z" />
    <glyph glyph-name="nine" unicode="9" 
d="M518 1252c53.333 0 98.999 -13.8311 136.999 -41.498s66.333 -63.834 85 -108.501s28 -92.334 28 -143.001c0 -50 -9.5 -97.5 -28.5 -142.5s-47.5 -81.5 -85.5 -109.5c-38 -27.333 -83.333 -41 -136 -41c-51.333 0 -95.666 13.667 -132.999 41s-65.5 63.5 -84.5 108.5
s-28.5 92.833 -28.5 143.5c0 50 9.33301 97.5 28 142.5s46.5 81.333 83.5 109s81.833 41.5 134.5 41.5zM65.999 357.002c3.33301 -57.333 16.668 -109.332 40.001 -155.999s55 -87.5 95 -122.5s85.167 -61.667 135.5 -80s102.833 -27.5 157.5 -27.5
c123.333 0 224.833 35.833 304.5 107.5s137.167 163.5 172.5 275.5s53 229.667 53 353c0 111.333 -7.66699 211.166 -23 299.499s-41.333 165.666 -78 231.999s-87.667 118.166 -153 155.499s-146.333 56 -243 56c-100 0 -186.5 -21.333 -259.5 -64
s-128.667 -101.167 -167 -175.5s-57.5 -156.833 -57.5 -247.5c0 -95.333 18.333 -179.166 55 -251.499s88.667 -128.5 156 -168.5c66.667 -39.333 144 -59 232 -59c139.333 0 241.666 56.667 306.999 170l2 -5c-6.66699 -86 -17.5 -163 -32.5 -231
s-43.167 -127.667 -84.5 -179s-100 -77 -176 -77c-58 0 -105.167 17.833 -141.5 53.5s-57.5 82.834 -63.5 141.501h-231z" />
    <glyph glyph-name="colon" unicode=":" horiz-adv-x="531" 
d="M127 748h277v278h-277v-278zM127 0h277v275h-277v-275z" />
    <glyph glyph-name="semicolon" unicode=";" horiz-adv-x="531" 
d="M127 0l140.002 0.000976562c0 -46.667 -12 -88 -36 -124c-23.333 -36.667 -56 -60.334 -98 -71.001v-125c53.333 10 100.166 29.667 140.499 59s72.166 66.666 95.499 111.999c22 44.667 33.667 94.334 35 149.001v275h-277v-275zM127.002 748.001h277v278h-277v-278z
" />
    <glyph glyph-name="less" unicode="&#x3c;" horiz-adv-x="1164" 
d="M1094 191l-752 319l752 326v207l-1025 -461v-141l1025 -458v208z" />
    <glyph glyph-name="greater" unicode="&#x3e;" horiz-adv-x="1164" 
d="M69 191v-208l1025 458v141l-1025 461v-207l755 -326z" />
    <glyph glyph-name="question" unicode="?" 
d="M301 985c0 94.667 20.501 169.668 61.501 225.001s101.833 83 182.5 83c28.667 0 58 -8.33301 88 -25c30.667 -16.667 56.334 -42.334 77.001 -77.001c21.333 -35.333 32 -78.666 32 -129.999c0 -41.333 -6.66699 -76.333 -20 -105c-14 -28 -29.667 -50.333 -47 -67
c-17.333 -16 -50.333 -44.667 -99 -86c-36.667 -32.667 -65.834 -65.334 -87.501 -98.001s-37.834 -73.834 -48.501 -123.501s-16 -113.167 -16 -190.5h215c0 61.333 7.16699 112 21.5 152s33.333 73.167 57 99.5s56.167 55.833 97.5 88.5c44 40.667 76.333 72.667 97 96
s39 55 55 95s24 89 24 147c0 86 -19 160 -57 222s-90.667 109 -158 141c-66.667 32.667 -141 49 -223 49c-72 0 -137.667 -11.667 -197 -35c-59.333 -22.667 -110.666 -56 -153.999 -100c-42.667 -43.333 -75.334 -95.666 -98.001 -156.999s-34 -129.333 -34 -204h231z
M391.001 0.000976562h271v250h-271v-250z" />
    <glyph glyph-name="at" unicode="@" horiz-adv-x="1563" 
d="M703 441c-47.333 0 -86 16.667 -116 50c-29.333 34 -44 78 -44 132c0 52.667 11.667 106.667 35 162c24 55.333 57 101.333 99 138c42.667 36 90 54 142 54c42.667 0 80 -18 112 -54s48 -76.667 48 -122c0 -51.333 -12.333 -105.5 -37 -162.5
s-58.167 -104.167 -100.5 -141.5s-88.5 -56 -138.5 -56zM1213 1102l-144.001 0.00292969l-32 -121c-46.667 98.667 -122 148 -226 148c-83.333 0 -158.666 -25.333 -225.999 -76c-66.667 -50.667 -118.667 -116.5 -156 -197.5s-56 -164.167 -56 -249.5
c0 -56.667 12.667 -109.667 38 -159c25.333 -48.667 60.333 -87.667 105 -117c44.667 -28.667 94.667 -43 150 -43c39.333 0 79 10.667 119 32c40.667 22 75.334 49 104.001 81h4c2 -37.333 14.5 -65.5 37.5 -84.5s50.167 -28.5 81.5 -28.5
c43.333 0 92.166 12.667 146.499 38s106.5 63.5 156.5 114.5s90.833 114.5 122.5 190.5s47.5 162.333 47.5 259c0 84.667 -17.833 163.5 -53.5 236.5s-84.667 136 -147 189s-134 94 -215 123s-165.833 43.5 -254.5 43.5c-132 0 -255 -32.667 -369 -98
c-114 -64.667 -204.667 -153.334 -272 -266.001c-66.667 -112.667 -100 -235.667 -100 -369c0 -112.667 19 -217 57 -313c38.667 -96 92.5 -179 161.5 -249s149 -124 240 -162s188.167 -57 291.5 -57c80 0 158.167 13.333 234.5 40s146 64.667 209 114s116.5 108 160.5 176
h-142c-54 -62 -121 -110.333 -201 -145c-80.667 -34 -165 -51 -253 -51c-112 0 -213.667 26 -305 78c-90.667 51.333 -162 125.666 -214 222.999c-51.333 96.667 -77 209.334 -77 338.001c0 111.333 24.5 213.666 73.5 306.999s117.833 167.166 206.5 221.499
s188.334 81.5 299.001 81.5c98.667 0 189 -20 271 -60c81.333 -39.333 145.666 -96 192.999 -170s71 -159 71 -255c0 -79.333 -13 -152.5 -39 -219.5s-59.167 -120 -99.5 -159s-80.833 -58.5 -121.5 -58.5c-26 0 -39 18 -39 54c0 28.667 4.66699 55 14 79z" />
    <glyph glyph-name="A" unicode="A" horiz-adv-x="1295" 
d="M428 574h434l-215 622zM-34 0l548 1450h271l548 -1450h-272l-127 381h-577l-134 -381h-257z" />
    <glyph glyph-name="B" unicode="B" horiz-adv-x="1381" 
d="M383 658v-450.999h449c49.333 0 92 9 128 27s63.333 44.333 82 79s28 75.667 28 123c0 69.333 -21 123.666 -63 162.999s-100.333 59 -175 59h-449zM137 0.000976562l0.000976562 1450h695c86 0 161.167 -13.5 225.5 -40.5s113.833 -68 148.5 -123s52 -121.833 52 -200.5
c0 -71.333 -17.667 -133 -53 -185c-18.667 -28 -39.5 -51.167 -62.5 -69.5s-44 -32.166 -63 -41.499l-28.5 -14c88 -20 155.333 -62.333 202 -127c45.333 -64.667 68 -147.667 68 -249c0 -77.333 -18.667 -146.166 -56 -206.499s-95.333 -107.666 -174 -141.999
s-177.334 -51.5 -296.001 -51.5h-658zM383.001 1239v-399h412c62 0 113 18 153 54s60 85.667 60 149c0 70.667 -17.5 121 -52.5 151s-88.5 45 -160.5 45h-412z" />
    <glyph glyph-name="C" unicode="C" horiz-adv-x="1432" 
d="M1360 985c-8.66699 102 -40.6709 190.503 -96.0039 265.503s-127.333 132.167 -216 171.5s-186 59 -292 59c-105.333 0 -200.666 -19.667 -285.999 -59s-158.333 -94 -219 -164c-60 -70 -106 -151.167 -138 -243.5s-48 -190.833 -48 -295.5
c0 -102 15.833 -198.667 47.5 -290s77.834 -171.833 138.501 -241.5s133.834 -123.834 219.501 -162.501s180.834 -58 285.501 -58c84.667 0 163.5 14 236.5 42s136.5 67.667 190.5 119c54 52 96.667 113.667 128 185c31.333 72 49 150.667 53 236h-241
c-7.33301 -70.667 -26.166 -134.834 -56.499 -192.501s-72 -103.167 -125 -136.5s-114.833 -50 -185.5 -50c-94.667 0 -175.5 26 -242.5 78s-117.5 120.333 -151.5 205s-51 174 -51 268c0 95.333 17 185.5 51 270.5s84.5 153.667 151.5 206s147.833 78.5 242.5 78.5
c97.333 0 174.666 -25.833 231.999 -77.5s99.333 -122.834 126 -213.501h246z" />
    <glyph glyph-name="D" unicode="D" horiz-adv-x="1432" 
d="M391 1239l0.00195312 -1032h252c125.333 0 223.166 22 293.499 66s119.166 103.667 146.499 179c26 74.667 39 163.667 39 267c0 107.333 -13.167 199 -39.5 275s-75.166 136 -146.499 180c-70.667 43.333 -168.334 65 -293.001 65h-252zM145.002 0l0.000976562 1450h593
c106.667 0 200.167 -18.333 280.5 -55s146.5 -88.334 198.5 -155.001c51.333 -66 89.333 -143 114 -231s37 -184.667 37 -290c0 -102 -12.333 -196.333 -37 -283c-24.667 -86 -62.667 -161.667 -114 -227s-117.333 -116.5 -198 -153.5s-174.334 -55.5 -281.001 -55.5h-593z
" />
    <glyph glyph-name="E" unicode="E" horiz-adv-x="1252" 
d="M150 0v1450h1030v-223h-784v-379h727v-207h-727v-424h796v-217h-1042z" />
    <glyph glyph-name="F" unicode="F" horiz-adv-x="1164" 
d="M141 0v1450h990v-223h-744v-379h654v-207h-654v-641h-246z" />
    <glyph glyph-name="G" unicode="G" horiz-adv-x="1477" 
d="M1381 764l-609.002 0.00195312v-199h381c-1.33301 -80 -17.666 -150 -48.999 -210c-31.333 -59.333 -77.166 -105 -137.499 -137s-132.5 -48 -216.5 -48c-93.333 0 -173.166 26 -239.499 78s-116.166 120.167 -149.499 204.5s-50 173.833 -50 268.5
c0 71.333 9.33301 139.666 28 204.999s46.5 124.833 83.5 178.5s83.167 95.667 138.5 126s118.333 45.5 189 45.5c62 0 119.833 -11.167 173.5 -33.5s98.167 -55.5 133.5 -99.5s57.333 -96.667 66 -158h241c-8 80.667 -29.667 152.334 -65 215.001
s-80.833 114.667 -136.5 156s-118.834 72.5 -189.501 93.5s-145 31.5 -223 31.5c-104.667 0 -199.667 -19.667 -285 -59s-158 -94 -218 -164s-106 -151.333 -138 -244c-31.333 -92 -47 -190.333 -47 -295c0 -102 15.667 -198.667 47 -290s77.166 -171.833 137.499 -241.5
s133.333 -123.834 219 -162.501s180.5 -58 284.5 -58c61.333 0 116 6.33301 164 19s93.333 33.667 136 63c43.333 29.333 88 69.666 134 120.999l35 -170h162v764z" />
    <glyph glyph-name="H" unicode="H" horiz-adv-x="1432" 
d="M137 0v1450h250v-577h654v577h254v-1450h-254v654h-654v-654h-250z" />
    <glyph glyph-name="I" unicode="I" horiz-adv-x="531" 
d="M141 0v1450h246v-1450h-246z" />
    <glyph glyph-name="J" unicode="J" 
d="M918 1450l-247.999 0.000976562v-997c0 -96 -14.333 -167.167 -43 -213.5s-81.334 -69.5 -158.001 -69.5c-72 0 -122.333 22.167 -151 66.5s-43 109.5 -43 195.5v76h-255v-76c0 -91.333 15.167 -171.833 45.5 -241.5s77.833 -124.334 142.5 -164.001
s146.334 -59.5 245.001 -59.5c126.667 0 224.167 22.667 292.5 68s114.166 104 137.499 176c23.333 72.667 35 158 35 256v983z" />
    <glyph glyph-name="K" unicode="K" horiz-adv-x="1342" 
d="M137 0v1450h246v-661l641 661h309l-569 -581l608 -869h-315l-465 690l-209 -202v-488h-246z" />
    <glyph glyph-name="L" unicode="L" horiz-adv-x="1118" 
d="M137 0v1450h246v-1233h735v-217h-981z" />
    <glyph glyph-name="M" unicode="M" horiz-adv-x="1741" 
d="M129 0v1450h353l393 -1138l391 1138h350v-1450h-240v1118l-401 -1118h-207l-403 1116v-1116h-236z" />
    <glyph glyph-name="N" unicode="N" horiz-adv-x="1432" 
d="M133 0v1450h263l659 -1069v1069h242v-1450h-264l-660 1061v-1061h-240z" />
    <glyph glyph-name="O" unicode="O" horiz-adv-x="1518" 
d="M760 1481c-104.667 0 -199.83 -19.666 -285.497 -58.999s-158.834 -94 -219.501 -164c-60 -70 -106 -151.167 -138 -243.5s-48 -190.833 -48 -295.5c0 -102 15.833 -198.667 47.5 -290s77.834 -171.833 138.501 -241.5s134 -123.834 220 -162.501s181 -58 285 -58
s199 19.5 285 58.5s159 92.833 219 161.5c59.333 69.333 104.833 149.333 136.5 240s47.5 188 47.5 292c0 106 -15.833 205 -47.5 297s-77.334 172.833 -137.001 242.5s-132.334 124.167 -218.001 163.5s-180.834 59 -285.501 59zM760.004 1276
c70.667 0 133.335 -15.1709 188.002 -45.5039s100.334 -72.166 137.001 -125.499c36 -52.667 63.167 -112.167 81.5 -178.5s27.5 -134.833 27.5 -205.5c0 -69.333 -9 -137 -27 -203c-18.667 -65.333 -46.334 -124.666 -83.001 -177.999
c-36.667 -52.667 -82.334 -94.167 -137.001 -124.5s-117 -45.5 -187 -45.5c-94 0 -174.667 26 -242 78s-118 120.333 -152 205s-51 174 -51 268c0 70 9.66699 138.333 29 205s47.666 126.334 84.999 179.001s84 94.334 140 125.001s119.667 46 191 46z" />
    <glyph glyph-name="P" unicode="P" horiz-adv-x="1295" 
d="M379 1239v-475h371c66.667 0 125 18.833 175 56.5s75 98.167 75 181.5c0 158 -81.333 237 -244 237h-377zM133 0v1450h631c125.333 0 224.5 -23.5 297.5 -70.5s123 -104.5 150 -172.5s40.5 -137.667 40.5 -209c0 -70.667 -13.5 -139.5 -40.5 -206.5
s-76.833 -123.5 -149.5 -169.5s-171.667 -69 -297 -69h-386v-553h-246z" />
    <glyph glyph-name="Q" unicode="Q" horiz-adv-x="1518" 
d="M918 207c-51.333 -24.667 -103.999 -37 -157.999 -37c-94 0 -174.667 26 -242 78s-118 120.333 -152 205s-51 174 -51 268c0 70 9.66699 138.333 29 205s47.666 126.334 84.999 179.001s84 94.334 140 125.001s119.667 46 191 46c92 0 171 -26.333 237 -79
s115.333 -121.834 148 -207.501s49 -175.834 49 -270.501c0 -166 -43 -299 -129 -399l-172 155l-117 -143zM1239 166c68.667 66 120.671 148.834 156.004 248.501s53 201.167 53 304.5c0 106 -15.833 205 -47.5 297s-77.334 172.833 -137.001 242.5
s-132.334 124.167 -218.001 163.5s-180.834 59 -285.501 59s-199.834 -19.667 -285.501 -59s-158.834 -94 -219.501 -164c-60 -70 -106 -151.167 -138 -243.5s-48 -190.833 -48 -295.5c0 -102 15.833 -198.667 47.5 -290s77.834 -171.833 138.501 -241.5
s134 -123.834 220 -162.501s181 -58 285 -58c120 0 232.667 28 338 84l207 -180l123 133z" />
    <glyph glyph-name="R" unicode="R" horiz-adv-x="1381" 
d="M383 1239l-0.000976562 -450h416c78.667 0 139.334 19.667 182.001 59s64 96 64 170c0 85.333 -22.333 143.5 -67 174.5s-105.667 46.5 -183 46.5h-412zM136.999 0v1450h682c154.667 0 272.667 -34.333 354 -103s122 -166 122 -292c0 -117.333 -26.333 -203 -79 -257
c-28.667 -29.333 -61 -55.333 -97 -78s-57.333 -34 -64 -34c58 -7.33301 108.333 -34 151 -80c43.333 -46.667 65 -121.667 65 -225v-8c0 -196 26.333 -320.333 79 -373h-273c-24 40 -36 110.333 -36 211c0 94 -8 168.667 -24 224s-44.5 96.333 -85.5 123
s-99.5 40 -175.5 40h-373v-598h-246z" />
    <glyph glyph-name="S" unicode="S" horiz-adv-x="1295" 
d="M57 484c2.66699 -115.333 30.8271 -211.835 84.4941 -289.502s125.167 -135 214.5 -172s190 -55.5 302 -55.5c100.667 0 194.334 15.833 281.001 47.5s156.334 81.167 209.001 148.5s79 151.666 79 252.999c0 51.333 -10 101.833 -30 151.5s-50.667 94 -92 133
s-91.666 68.5 -150.999 88.5c-25.333 7.33301 -99.666 27 -222.999 59c-122.667 31.333 -187 48.333 -193 51c-116 30 -174 92.333 -174 187c0 66 27 114.167 81 144.5s116 45.5 186 45.5c59.333 0 111.5 -8.83301 156.5 -26.5s81 -45.5 108 -83.5s42.5 -87.333 46.5 -148
h246c0 98 -24.167 181.833 -72.5 251.5s-114.166 122.334 -197.499 158.001s-176.333 53.5 -279 53.5c-89.333 0 -174 -16 -254 -48c-80 -31.333 -144.333 -79.166 -193 -143.499s-73 -142.5 -73 -234.5c0 -94 23.5 -168.167 70.5 -222.5s103.167 -93.5 168.5 -117.5
c64 -24 151.667 -49.667 263 -77s190.333 -51.666 237 -72.999c80.667 -24 121 -83.333 121 -178c0 -36.667 -10.667 -71.667 -32 -105c-21.333 -32.667 -54.833 -59.5 -100.5 -80.5s-103.167 -31.5 -172.5 -31.5c-107.333 0 -194.166 26 -260.499 78
s-99.5 130.667 -99.5 236h-257z" />
    <glyph glyph-name="T" unicode="T" horiz-adv-x="1164" 
d="M4 1227v223h1160v-223h-457v-1227h-247l-1 1227h-455z" />
    <glyph glyph-name="U" unicode="U" horiz-adv-x="1432" 
d="M129 518c0 -120 23.8291 -221.333 71.4961 -304s115.334 -144.5 203.001 -185.5s190.834 -61.5 309.501 -61.5s222.5 20.5 311.5 61.5s157.833 103.167 206.5 186.5c49.333 82.667 74 183.667 74 303v932h-254v-844c0 -86.667 -6.33301 -158.834 -19 -216.501
s-43.667 -106.5 -93 -146.5s-124.666 -60 -225.999 -60c-78 0 -139.833 11.833 -185.5 35.5s-79.5 55.834 -101.5 96.501c-21.333 40 -34.666 82.333 -39.999 127c-6 45.333 -9 100 -9 164v844h-248v-932z" />
    <glyph glyph-name="V" unicode="V" horiz-adv-x="1204" 
d="M459 0l-476 1450h257l369 -1149l362 1149h256l-489 -1450h-279z" />
    <glyph glyph-name="W" unicode="W" horiz-adv-x="1878" 
d="M379 0l-376 1450h255l264 -1110l289 1110h254l289 -1110l266 1110h254l-397 -1450h-254l-289 1110l-295 -1110h-260z" />
    <glyph glyph-name="X" unicode="X" horiz-adv-x="1295" 
d="M498 748l-506 -748h287l360 549l357 -549h305l-506 748l476 702h-284l-340 -512l-325 512h-297z" />
    <glyph glyph-name="Y" unicode="Y" horiz-adv-x="1295" 
d="M522 0h250v565l537 885h-281l-374 -649l-379 649h-292l539 -885v-565z" />
    <glyph glyph-name="Z" unicode="Z" horiz-adv-x="1252" 
d="M107 1227v223h1090v-198l-836 -1035h854v-217h-1174v207l834 1020h-768z" />
    <glyph glyph-name="bracketleft" unicode="[" horiz-adv-x="576" 
d="M137 -383h443v180h-227v469v1035h227v180h-443v-832v-1032z" />
    <glyph glyph-name="backslash" unicode="\" horiz-adv-x="666" 
d="M152 1481h-214l181 -479l391 -1035h219l-184 482z" />
    <glyph glyph-name="bracketright" unicode="]" horiz-adv-x="576" 
d="M445 1481h-453v-180h232v-469v-1035h-232v-180h453v832v1032z" />
    <glyph glyph-name="underscore" unicode="_" horiz-adv-x="979" 
d="M991 -250v100h-1004v-100h1004z" />
    <glyph glyph-name="grave" unicode="`" horiz-adv-x="445" 
d="M-73 1481l278 -289h168l-184 289h-262z" />
    <glyph glyph-name="a" unicode="a" 
d="M733 353c0 -66 -27.335 -115.667 -82.002 -149s-112.667 -50 -174 -50c-51.333 0 -98.666 10.667 -141.999 32c-43.333 22 -65 57 -65 105c0 68 23.333 112.667 70 134s116 38 208 50c92.667 11.333 154.334 27 185.001 47v-169zM962.998 772
c0 102.667 -40.667 178.669 -122 228.002c-80.667 48.667 -178 73 -292 73c-130.667 0 -240.167 -26.667 -328.5 -80s-137.166 -143.333 -146.499 -270h231c12 112 88.667 168 230 168c143.333 0 215 -47.667 215 -143c0 -39.333 -13 -67.333 -39 -84
c-25.333 -16.667 -61.333 -28.334 -108 -35.001l-162 -23c-84.667 -12 -154.167 -27 -208.5 -45s-99.833 -49.333 -136.5 -94s-55 -107.334 -55 -188.001c0 -67.333 16.667 -124 50 -170s77.5 -80.167 132.5 -102.5s115.167 -33.5 180.5 -33.5c67.333 0 133 11.667 197 35
c64 22 115.667 53 155 93c12.667 -85.333 70.667 -128 174 -128c51.333 0 99 9 143 27v158c-18.667 -2.66699 -32.334 -4 -41.001 -4c-46 2 -69 27.333 -69 76v542z" />
    <glyph glyph-name="b" unicode="b" horiz-adv-x="1204" 
d="M914 522c0 64.667 -10.832 125.335 -32.499 182.002s-53.834 102 -96.501 136s-94 51 -154 51c-63.333 0 -117.333 -17 -162 -51c-46 -34.667 -80.5 -80.334 -103.5 -137.001s-34.5 -117 -34.5 -181c0 -63.333 11.667 -123.333 35 -180s57.666 -102.167 102.999 -136.5
s99.333 -51.5 162 -51.5c65.333 0 119.333 17.333 162 52s73.334 79.667 92.001 135c19.333 55.333 29 115.666 29 180.999zM118.001 0.000976562l-0.000976562 1450h228l4 -538c30 49.333 73.667 88.5 131 117.5s116.333 43.5 177 43.5c106 0 195.5 -24.333 268.5 -73
s127.667 -115.167 164 -199.5s54.5 -178.5 54.5 -282.5c0 -98 -16.333 -188.667 -49 -272c-33.333 -82.667 -83.666 -149.167 -150.999 -199.5s-149.333 -75.5 -246 -75.5c-76.667 0 -140 8 -190 24s-87.333 34.833 -112 56.5s-41 41.334 -49 59.001
s-12.667 28.167 -14 31.5v-142h-216z" />
    <glyph glyph-name="c" unicode="c" 
d="M1024 699c-9.33301 122.667 -57.499 215.668 -144.499 279.001s-195.167 95 -324.5 95c-110 0 -203.5 -24.333 -280.5 -73s-135 -115.667 -174 -201s-58.5 -181.666 -58.5 -288.999c0 -102.667 19.833 -194.834 59.5 -276.501s97.834 -145.834 174.501 -192.501
s167.667 -70 273 -70c132.667 0 240 36.667 322 110c81.333 72 132.333 175.333 153 310h-229c-6 -48.667 -20 -91 -42 -127s-50.333 -63.333 -85 -82s-74.334 -28 -119.001 -28c-60.667 0 -112.334 16.667 -155.001 50c-43.333 34 -76 78.5 -98 133.5
s-33 113.833 -33 176.5c0 64.667 11.667 126 35 184c22 58 55.167 104.667 99.5 140s96.833 53 157.5 53c67.333 0 122.333 -16.333 165 -49c42.667 -34 67.667 -81.667 75 -143h229z" />
    <glyph glyph-name="d" unicode="d" horiz-adv-x="1204" 
d="M291 510c0 -98 24.167 -181.832 72.5 -251.499s119.166 -104.5 212.499 -104.5c61.333 0 114.333 17.5 159 52.5s78.167 81.167 100.5 138.5s33.5 118 33.5 182c0 63.333 -11 123 -33 179s-55 101 -99 135c-43.333 33.333 -95.666 50 -156.999 50
c-100 0 -173.167 -36.333 -219.5 -109s-69.5 -163.334 -69.5 -272.001zM1090 1450l-0.000976562 -1450h-222l-1 142c-28 -57.333 -71 -100.166 -129 -128.499s-122.333 -42.5 -193 -42.5c-105.333 0 -194.666 24.333 -267.999 73c-72.667 47.333 -127.5 113.5 -164.5 198.5
s-55.5 181.167 -55.5 288.5c0 90.667 12.667 170.667 38 240c26 68.667 60.333 125.334 103 170.001c43.333 44.667 91.833 77.834 145.5 99.501s109.167 32.5 166.5 32.5c73.333 0 141.333 -13.333 204 -40c36 -16 63.833 -32.5 83.5 -49.5s34.5 -33.167 44.5 -48.5
s15.333 -23 16 -23v538h232z" />
    <glyph glyph-name="e" unicode="e" 
d="M1037 465c2.66699 18 4.00098 43.332 4.00098 75.999c0 96 -20.5 184.667 -61.5 266s-99.167 146 -174.5 194s-162 72 -260 72c-99.333 0 -187.333 -24.833 -264 -74.5s-135.5 -116.5 -176.5 -200.5s-61.5 -176 -61.5 -276c0 -107.333 20 -202.666 60 -285.999
s98.5 -148.333 175.5 -195s168.5 -70 274.5 -70c116 0 217 32 303 96c86.667 62.667 143 149.667 169 261h-218c-38.667 -116 -123.334 -174 -254.001 -174c-60.667 0 -112 14 -154 42c-42 28.667 -73.333 66.667 -94 114c-20 47.333 -30 99 -30 155h762zM275.001 617.999
c4 78.667 30.668 143.833 80.001 195.5s112.666 77.5 189.999 77.5c76 0 137.667 -26.667 185 -80c48 -52.667 74 -117 78 -193h-533z" />
    <glyph glyph-name="f" unicode="f" horiz-adv-x="576" 
d="M-8 877l171.999 0.000976562v-877h227l1 877h197l-1 170h-196v109c0 70.667 44.333 106 133 106c28.667 0 58 -3.33301 88 -10v178c-34 13.333 -87.333 20 -160 20c-89.333 0 -159.666 -21.667 -210.999 -65c-52 -44.667 -78 -127.334 -78 -248.001v-90h-172v-170z" />
    <glyph glyph-name="g" unicode="g" horiz-adv-x="1164" 
d="M555 183c61.333 0 113.668 16.667 157.001 50s76.166 77.5 98.499 132.5s33.5 112.833 33.5 173.5s-11 118 -33 172s-55 97.5 -99 130.5s-96.333 49.5 -157 49.5c-57.333 0 -106.666 -16.667 -147.999 -50c-42.667 -34 -74.334 -78.333 -95.001 -133
c-21.333 -54 -32 -111.667 -32 -173s10.5 -118.833 31.5 -172.5s52.5 -97 94.5 -130s91.667 -49.5 149 -49.5zM1065 1047l-0.00390625 -995.998c0 -78 -11 -145.833 -33 -203.5s-55 -105.834 -99 -144.501c-43.333 -38.667 -96.666 -67.5 -159.999 -86.5
s-136 -28.5 -218 -28.5c-73.333 0 -144 10.5 -212 31.5s-125 55.5 -171 103.5c-45.333 48 -71.666 109.667 -78.999 185h229c13.333 -58 41 -97.333 83 -118c42.667 -21.333 97 -32 163 -32c181.333 0 272 89 272 267l-4 158
c-31.333 -56.667 -75.166 -101.334 -131.499 -134.001s-117.166 -49 -182.499 -49c-105.333 -0 -193.166 24.333 -263.499 73s-122.333 114.5 -156 197.5s-50.5 175.833 -50.5 278.5c0 95.333 19.667 183 59 263c38 80 93.333 143.667 166 191
c71.333 46.667 154.666 70 249.999 70c69.333 0 131 -14 185 -42c25.333 -12.667 47 -28.167 65 -46.5s33 -36.5 45 -54.5l18 -27v144h225z" />
    <glyph glyph-name="h" unicode="h" horiz-adv-x="1118" 
d="M107 0v1450h227l4 -542c27.333 49.333 68.833 89.166 124.5 119.499s117.167 45.5 184.5 45.5c114.667 0 204.834 -30.167 270.501 -90.5s98.5 -148.833 98.5 -265.5v-717h-227v658c-2 82 -20 141.333 -54 178s-85.667 55 -155 55
c-72.667 0 -131.834 -25.833 -177.501 -77.5s-68.5 -116.5 -68.5 -194.5v-619h-227z" />
    <glyph glyph-name="i" unicode="i" horiz-adv-x="445" 
d="M106 0v1046h228v-1046h-228zM106 1227v223h228v-223h-228z" />
    <glyph glyph-name="j" unicode="j" horiz-adv-x="445" 
d="M107 -77v1123h227v-1138c0 -106.667 -23 -186.667 -69 -240s-122 -80 -228 -80c-28 0 -61 2.66699 -99 8v183c36 -6 61 -9 75 -9c40 0 65.667 11 77 33s17 62 17 120zM106 1227v223h228v-223h-228z" />
    <glyph glyph-name="k" unicode="k" 
d="M123 0v1450h227v-823l415 420h280l-397 -385l434 -662h-279l-317 508l-136 -135v-373h-227z" />
    <glyph glyph-name="l" unicode="l" horiz-adv-x="445" 
d="M106 0v1450h228v-1450h-228z" />
    <glyph glyph-name="m" unicode="m" horiz-adv-x="1694" 
d="M99 0l0.00292969 1047h215l4 -148c34 52.667 82.667 94.834 146 126.501s128 47.5 194 47.5c61.333 0 116.166 -14.333 164.499 -43s84.166 -72.334 107.499 -131.001c77.333 116 184.666 174 321.999 174c114.667 0 202 -27.833 262 -83.5s90 -145.834 90 -270.501v-719
h-232v615c0 64 -3.83301 115.167 -11.5 153.5s-25 68.333 -52 90s-68.5 32.5 -124.5 32.5c-148 0 -222 -92 -222 -276v-615h-229v674c0 74.667 -13.667 129.5 -41 164.5s-75 52.5 -143 52.5c-60.667 0 -113.167 -24 -157.5 -72s-66.5 -113.333 -66.5 -196v-623h-226z" />
    <glyph glyph-name="n" unicode="n" horiz-adv-x="1118" 
d="M107 0v1047h215l4 -158c32.667 58.667 77.167 104 133.5 136s118.833 48 187.5 48c114.667 0 204.834 -30.167 270.501 -90.5s98.5 -148.833 98.5 -265.5v-717h-227v658c-2 82 -20 141.333 -54 178s-85.667 55 -155 55c-72.667 0 -131.834 -25.833 -177.501 -77.5
s-68.5 -116.5 -68.5 -194.5v-619h-227z" />
    <glyph glyph-name="o" unicode="o" horiz-adv-x="1164" 
d="M580 154c-61.333 0 -114.333 17.333 -159 52s-78.334 80.334 -101.001 137.001s-34 116.334 -34 179.001c0 63.333 11.333 123.333 34 180s56.167 102.334 100.5 137.001s97.5 52 159.5 52c63.333 0 117.333 -17.333 162 -52s78.334 -80.334 101.001 -137.001
s34 -116.667 34 -180c0 -62.667 -11.333 -122.334 -34 -179.001s-56.5 -102.334 -101.5 -137.001s-98.833 -52 -161.5 -52zM580 -29c108.667 0 203.002 23.499 283.002 70.499s141.167 112.167 183.5 195.5s63.5 178.333 63.5 285c0 108 -21 203.5 -63 286.5
s-103 147.833 -183 194.5s-174.667 70 -284 70c-108.667 0 -202.334 -23.333 -281.001 -70s-138.334 -111.667 -179.001 -195c-42 -83.333 -63 -178.666 -63 -285.999c0 -106 21 -200.667 63 -284c40.667 -84 100.5 -149.5 179.5 -196.5s172.5 -70.5 280.5 -70.5z" />
    <glyph glyph-name="p" unicode="p" horiz-adv-x="1204" 
d="M914 522c0 64.667 -10.832 125.335 -32.499 182.002s-53.834 102 -96.501 136s-94 51 -154 51c-63.333 0 -117.333 -17 -162 -51c-46 -34.667 -80.5 -80.334 -103.5 -137.001s-34.5 -117 -34.5 -181c0 -63.333 11.667 -123.333 35 -180s57.666 -102.167 102.999 -136.5
s99.333 -51.5 162 -51.5c65.333 0 119.333 17.333 162 52s73.334 79.667 92.001 135c19.333 55.333 29 115.666 29 180.999zM118.001 -382.999l-0.00195312 1430h216l2 -154c32.667 66.667 76.334 113 131.001 139c56 27.333 119.667 41 191 41
c106 0 195.5 -24.333 268.5 -73s127.667 -115.167 164 -199.5s54.5 -178.5 54.5 -282.5c0 -98 -16.333 -188.667 -49 -272c-33.333 -82.667 -83.666 -149.167 -150.999 -199.5s-149.333 -75.5 -246 -75.5c-71.333 0 -138.333 14 -201 42c-30 12.667 -54.5 26.167 -73.5 40.5
s-34.167 27.833 -45.5 40.5s-19.5 22.334 -24.5 29.001s-7.83301 10 -8.5 10v-516h-228z" />
    <glyph glyph-name="q" unicode="q" horiz-adv-x="1204" 
d="M291 522c0 -64.667 9.66797 -124.832 29.001 -180.499s50.5 -100.834 93.5 -135.501s97.167 -52 162.5 -52c62 0 115.333 17.333 160 52c45.333 34 79.166 79.167 101.499 135.5s33.5 115.833 33.5 178.5c0 64 -11 124.333 -33 181
c-23.333 57.333 -57.333 103.333 -102 138s-98 52 -160 52c-60.667 0 -112.5 -17 -155.5 -51s-75.5 -79.333 -97.5 -136c-21.333 -56 -32 -116.667 -32 -182zM1090 1047l-0.000976562 -1430h-232l-2 514c-31.333 -50.667 -79.666 -90 -144.999 -118
c-63.333 -28 -130.333 -42 -201 -42c-98 0 -181.333 25.333 -250 76c-68 50 -119 116.667 -153 200c-33.333 83.333 -50 173.666 -50 270.999c0 103.333 18.5 197.333 55.5 282s92.167 151.334 165.5 200.001s162.333 73 267 73c80 0 144.333 -12.5 193 -37.5
s82 -50.167 100 -75.5s29 -44.333 33 -57v144h219z" />
    <glyph glyph-name="r" unicode="r" horiz-adv-x="666" 
d="M102 0l-0.000976562 1047h212l1 -203c34.667 150 165.334 225 392.001 225v-221c-43.333 5.33301 -74.666 8 -93.999 8c-54 0 -102.333 -14 -145 -42s-76.334 -69.333 -101.001 -124c-24.667 -54 -37 -117.333 -37 -190l-1 -500h-227z" />
    <glyph glyph-name="s" unicode="s" horiz-adv-x="1028" 
d="M57 336c1.33301 -78.667 22.334 -145.334 63.001 -200.001c39.333 -55.333 93.666 -96.333 162.999 -123c69.333 -28 147.666 -42 234.999 -42c78.667 0 153 11.667 223 35c70.667 22.667 128.667 59.5 174 110.5s68 116.167 68 195.5c0 64 -15.333 116.333 -46 157
s-70.334 71.667 -119.001 93c-48.667 22 -105.667 41 -171 57l-134 29c-42 9.33301 -77.667 19.666 -107 30.999c-28.667 10.667 -52 24.834 -70 42.501s-27 40.167 -27 67.5c0 38 20 64.5 60 79.5s83 22.5 129 22.5c124.667 0 195.667 -46.333 213 -139h240
c-8 56 -25.167 104.833 -51.5 146.5s-59.333 75.334 -99 101.001s-83.5 44.334 -131.5 56.001s-99.667 17.5 -155 17.5c-70 0 -138.167 -9.33301 -204.5 -28s-121.5 -50.334 -165.5 -95.001s-66 -102.667 -66 -174c0 -67.333 15 -121.5 45 -162.5s69 -71.833 117 -92.5
c46.667 -20.667 104 -38.667 172 -54l126.5 -28c45.667 -10 82.834 -20.333 111.501 -31s52.834 -25.167 72.501 -43.5s30.834 -41.5 33.501 -69.5c0 -94 -78 -141 -234 -141c-66 0 -119.833 14.667 -161.5 44s-64.834 75.333 -69.501 138h-234z" />
    <glyph glyph-name="t" unicode="t" horiz-adv-x="629" 
d="M-5 877h171.998l1 -619c1.33301 -48 6 -88 14 -120s22.333 -59 43 -81c20 -21.333 48.5 -37.5 85.5 -48.5s85.167 -16.5 144.5 -16.5c17.333 0 42.333 1.33301 75 4s57.334 4 74.001 4v178c-24 -5.33301 -56.667 -8 -98 -8c-47.333 0 -77.666 10.5 -90.999 31.5
s-20 59.167 -20 114.5v561h209v170h-208v315h-228v-315h-173v-170z" />
    <glyph glyph-name="u" unicode="u" horiz-adv-x="1118" 
d="M1016 1047l0.000976562 -1047h-223v145c-26.667 -48 -70.334 -89.667 -131.001 -125c-55.333 -32.667 -112.666 -49 -171.999 -49c-66 0 -123.667 8.66699 -173 26c-48.667 18 -88.667 44 -120 78c-30.667 34.667 -53.334 77.167 -68.001 127.5s-22 109.833 -22 178.5
v666h227v-643c0 -90 16.333 -154.167 49 -192.5s82 -57.5 148 -57.5c90 0 155.333 26 196 78c41.333 52 62 121.667 62 209v606h227z" />
    <glyph glyph-name="v" unicode="v" horiz-adv-x="1028" 
d="M387 0l-375 1047h250l269 -805l254 805h235l-373 -1047h-260z" />
    <glyph glyph-name="w" unicode="w" horiz-adv-x="1518" 
d="M326 0l-322 1047h244l207 -781l197 781h227l190 -781l213 781h232l-326 -1047h-231l-197 781l-197 -781h-237z" />
    <glyph glyph-name="x" unicode="x" 
d="M3 0h271l253 383l266 -383h268l-396 561l355 486h-264l-225 -324l-217 324h-278l355 -498z" />
    <glyph glyph-name="y" unicode="y" horiz-adv-x="1028" 
d="M391 4l-392.002 1043h255l273 -781l266 781h235l-376 -1034l-23 -69c-41.333 -96.667 -72.666 -164.834 -93.999 -204.501s-54.166 -74.834 -98.499 -105.501s-103.833 -46 -178.5 -46c-54.667 0 -106.667 4 -156 12v193c34.667 -6.66699 63 -10 85 -10
c92 0 152.333 47 181 141z" />
    <glyph glyph-name="z" unicode="z" horiz-adv-x="979" 
d="M69 865h539l-576 -703v-162h914v183h-625l593 702v162h-845v-182z" />
    <glyph glyph-name="braceleft" unicode="{" horiz-adv-x="576" 
d="M-17 457c24 0 50.501 -5.33203 79.501 -15.999s54.5 -28 76.5 -52s33 -55.333 33 -94v-406c0 -58.667 14.5 -108.5 43.5 -149.5s63.833 -71.833 104.5 -92.5c41.333 -20 78.666 -30 111.999 -30h181v180h-110c-47.333 0 -78.333 13.167 -93 39.5s-22 60.833 -22 103.5
l-1 380c-2.66699 140 -71.667 214.333 -207 223v4c46.667 4.66699 92.5 24 137.5 58s68.167 87 69.5 159l1 391c0 42.667 7.33301 77.667 22 105s45.667 41 93 41h110v180h-181c-32.667 0 -69.667 -10.667 -111 -32c-41.333 -20.667 -76.333 -52 -105 -94
c-29.333 -41.333 -44 -91.666 -44 -150.999v-415c0 -36.667 -11 -66.334 -33 -89.001s-47.5 -38.834 -76.5 -48.501s-55.5 -14.5 -79.5 -14.5v-180z" />
    <glyph glyph-name="bar" unicode="|" horiz-adv-x="400" 
d="M102 -33h203v482v1032h-203v-479v-1035z" />
    <glyph glyph-name="braceright" unicode="}" horiz-adv-x="576" 
d="M596 637c-42.667 0 -85.335 13.1631 -128.002 39.4961s-64 68.5 -64 126.5v401c0 58.667 -14.667 109 -44 151s-64 73.5 -104 94.5s-75.333 31.5 -106 31.5h-184v-180h107c76.667 0 115 -48.667 115 -146v-379c0 -139.333 69 -215.666 207 -228.999v-4
c-49.333 -6.66699 -96.166 -25.667 -140.499 -57s-66.5 -82.666 -66.5 -153.999v-392c0 -95.333 -38.333 -143 -115 -143h-107v-180h183c30.667 0 66.334 10 107.001 30c40 20.667 74.333 51.667 103 93c29.333 41.333 44 91 44 149l1 418c0 36.667 11 66.334 33 89.001
s48 38.334 78 47.001c29.333 9.33301 56.333 14 81 14v180z" />
    <glyph glyph-name="asciitilde" unicode="~" horiz-adv-x="1164" 
d="M971 686c-27.333 -42 -54.6699 -75.668 -82.0029 -101.001s-58.666 -38 -93.999 -38c-32 0 -63 5.66699 -93 17s-68.333 28.666 -115 51.999s-86 40.833 -118 52.5s-65.333 17.5 -100 17.5c-112.667 0 -196 -58.667 -250 -176l70 -170c47.333 92.667 103.333 139 168 139
c36.667 0 71.5 -5.83301 104.5 -17.5s72.833 -29.167 119.5 -52.5s85.334 -40.666 116.001 -51.999s63.334 -17 98.001 -17c54 0 98.667 14.833 134 44.5s74 72.834 116 129.501z" />
    <glyph glyph-name="nonbreakingspace" unicode="&#xa0;" horiz-adv-x="444" 
 />
    <glyph glyph-name="exclamdown" unicode="&#xa1;" horiz-adv-x="531" 
d="M392 41l-66 633h-117l-67 -633v-410h250v410zM400 1073h-267v-250h267v250z" />
    <glyph glyph-name="cent" unicode="&#xa2;" 
d="M514 154c-78.667 11.333 -137.333 51.333 -176 120c-40 68 -60 146.667 -60 236c0 62.667 8 122 24 178s41.5 102.667 76.5 140s80.167 58.333 135.5 63v-737zM514.001 -211l86.0029 -0.000976562v182c120.667 0 217.334 37.167 290.001 111.5
s121.667 177.166 147 308.499h-230c-6.66699 -64.667 -28 -117.667 -64 -159c-35.333 -42 -83 -68 -143 -78v737c52.667 0 97.167 -17.667 133.5 -53s58.166 -81.666 65.499 -138.999h229c-6.66699 76.667 -29.667 143.334 -69 200.001
c-38.667 56.667 -89.667 99.667 -153 129c-62.667 30 -131.334 45 -206.001 45v183h-86v-183c-98.667 0 -183.334 -26 -254.001 -78s-123.834 -120.333 -159.501 -205s-53.5 -174.667 -53.5 -270c0 -94.667 17.833 -184 53.5 -268s89 -151.833 160 -203.5
s155.5 -77.5 253.5 -77.5v-182z" />
    <glyph glyph-name="sterling" unicode="&#xa3;" 
d="M37 645l182.002 0.000976562c27.333 -48 41 -101.667 41 -161c0 -67.333 -19.333 -131.666 -58 -192.999s-90.334 -115.333 -155.001 -162l105 -162c58.667 44 128.334 66 209.001 66c65.333 0 132.666 -12.333 201.999 -37c116 -12.667 191.333 -19 226 -19
c121.333 0 221.666 33 300.999 99l-107 158c-55.333 -49.333 -118.666 -74 -189.999 -74c-49.333 0 -99.333 11.667 -150 35c-50 16 -97.667 24 -143 24c-62 0 -131 -15 -207 -45l-2 4c37.333 30.667 71 63.667 101 99c30.667 35.333 55.667 73.666 75 114.999
s29 82.666 29 123.999c0 46 -11.667 89 -35 129h246v136h-295c-60 105.333 -90 195.333 -90 270c0 74 21.333 132.833 64 176.5s95 65.5 157 65.5c172 0 262.667 -104 272 -312h230c-0.666992 83.333 -12.834 156.333 -36.501 219s-57.5 114.667 -101.5 156
c-43.333 41.333 -96.333 72.333 -159 93c-62 21.333 -131.667 32 -209 32c-78.667 0 -154.667 -17.5 -228 -52.5s-132.5 -84.5 -177.5 -148.5s-67.5 -137 -67.5 -219c0 -46 9 -95 27 -147s41.667 -96.333 71 -133h-127v-136z" />
    <glyph glyph-name="currency" unicode="&#xa4;" 
d="M129 183l111.001 118.003c37.333 -34.667 82.166 -61.334 134.499 -80.001s106.5 -28 162.5 -28c120.667 0 216.334 36 287.001 108l114 -118l109 114l-108 115c64 81.333 96 185.666 96 312.999c0 117.333 -30.667 209.666 -92 276.999l108 119l-121 118l-119 -110
c-70 58.667 -163.333 88 -280 88c-114.667 0 -210.334 -30.667 -287.001 -92l-115 110l-113 -110l113 -127c-71.333 -61.333 -107 -152.333 -107 -273c0 -57.333 9.16699 -113.5 27.5 -168.5s44.833 -101.833 79.5 -140.5l-113 -119zM535.001 404.003
c-52.667 0 -101.5 13.502 -146.5 40.502s-80.167 63.833 -105.5 110.5c-26.667 46 -40 96.667 -40 152c0 85.333 28.167 157.166 84.5 215.499s126.833 87.5 211.5 87.5c57.333 0 106.333 -14 147 -42c41.333 -28.667 72.333 -65.834 93 -111.501s31 -94.167 31 -145.5
c0 -53.333 -10.667 -103.5 -32 -150.5s-52.833 -84.833 -94.5 -113.5s-91.167 -43 -148.5 -43z" />
    <glyph glyph-name="yen" unicode="&#xa5;" 
d="M416 0h231v332h279v135h-279v139h279v125h-205l381 719h-250l-317 -649l-316 649h-253l376 -719h-197v-125h270v-139h-270v-135h271v-332z" />
    <glyph glyph-name="section" unicode="&#xa7;" 
d="M691 631c55.333 -34 92.667 -63.335 112 -88.002s29 -52 29 -82c0 -79.333 -40.333 -134.666 -121 -165.999l-365 205c-74 41.333 -111 94 -111 158c0 36.667 11.667 70.334 35 101.001c23.333 31.333 52.333 51.333 87 60zM951.001 1102
c0 76.667 -17.665 143.671 -52.998 201.004c-34.667 57.333 -83 101.333 -145 132s-131.333 46 -208 46c-65.333 0 -128.5 -14 -189.5 -42s-110.667 -67.833 -149 -119.5s-57.5 -111.167 -57.5 -178.5c0 -80.667 28.667 -149.667 86 -207
c-143.333 -64 -215 -163.667 -215 -299c0 -87.333 30.833 -160.333 92.5 -219s148.5 -116.667 260.5 -174c96 -51.333 162 -87.5 198 -108.5s69.333 -48.5 100 -82.5c30.667 -35.333 46 -75 46 -119c0 -108 -58 -162 -174 -162c-130.667 0 -200.334 76.667 -209.001 230
h-215c2 -88 22 -163 60 -225c36.667 -62 87 -108.667 151 -140s137 -47 219 -47c71.333 0 137.5 13 198.5 39s110.167 65.167 147.5 117.5s56 114.833 56 187.5c0 104.667 -38.333 191 -115 259c61.333 19.333 111.833 56.666 151.5 111.999s59.5 115.666 59.5 180.999
c0 60 -15.667 113.5 -47 160.5s-70.333 86.667 -117 119s-104 66.166 -172 101.499l-129 66c-40 21.333 -75.333 42.333 -106 63c-30 21.333 -54 44.666 -72 69.999s-27 53 -27 83c0 42.667 17.167 79 51.5 109s72.5 45 114.5 45c55.333 0 99.666 -19.333 132.999 -58
c33.333 -38 51 -85 53 -141h222z" />
    <glyph glyph-name="dieresis" unicode="&#xa8;" horiz-adv-x="445" 
d="M283 1430v-217h227v217h-227zM164 1213v217h-226v-217h226z" />
    <glyph glyph-name="copyright" unicode="&#xa9;" horiz-adv-x="1563" 
d="M1518 719c0 112 -19.335 215.17 -58.002 309.503s-92.167 175.166 -160.5 242.499s-146.666 119.166 -234.999 155.499s-181.5 54.5 -279.5 54.5c-100.667 0 -195.667 -18 -285 -54s-168.666 -87.667 -237.999 -155c-68.667 -68 -122.334 -149.167 -161.001 -243.5
s-58 -197.5 -58 -309.5c0 -139.333 31.833 -266.5 95.5 -381.5s151.834 -205.5 264.501 -271.5c113.333 -66 240.666 -99 381.999 -99c97.333 0 190.333 18.167 279 54.5s167 88.166 235 155.499c68.667 66.667 122.334 146.5 161.001 239.5s58 193.833 58 302.5z
M1356 719.003c0 -119.333 -25 -226 -75 -320s-118.667 -167.333 -206 -220c-88 -52 -184.667 -78 -290 -78c-115.333 0 -217 27.333 -305 82s-155.667 129 -203 223c-48 94.667 -72 199 -72 313c0 121.333 25.5 230 76.5 326s120.833 170.667 209.5 224c88 54 186 81 294 81
c106 0 202.667 -27 290 -81c87.333 -53.333 156 -128 206 -224s75 -204.667 75 -326zM1024 573.003c-6 -52 -28.6689 -94.6689 -68.002 -128.002c-39.333 -32.667 -89 -49 -149 -49c-54.667 0 -102 15 -142 45c-40.667 30.667 -71 70.334 -91 119.001
c-20.667 49.333 -31 101 -31 155c0 85.333 22.667 158.5 68 219.5s109.333 91.5 192 91.5c57.333 0 106 -15.667 146 -47s65 -73.666 75 -126.999h135c-7.33301 64.667 -27.333 120 -60 166c-32.667 46.667 -74.667 81.834 -126 105.501s-108 35.5 -170 35.5
c-85.333 -1.33301 -160 -20.833 -224 -58.5s-113.333 -89.834 -148 -156.501c-34.667 -66 -52 -141 -52 -225c0 -63.333 10.167 -122.333 30.5 -177s49.5 -103 87.5 -145c38.667 -41.333 84.334 -73.5 137.001 -96.5s110.334 -34.5 173.001 -34.5
c58 0 112.333 12.5 163 37.5s93 60.667 127 107s56.333 100.5 67 162.5h-140z" />
    <glyph glyph-name="ordfeminine" unicode="&#xaa;" horiz-adv-x="756" 
d="M486 994c0 -70 -57.332 -105.002 -171.999 -105.002c-36.667 0 -64.834 4.33301 -84.501 13s-29.5 26.334 -29.5 53.001c0 34.667 15.833 58.834 47.5 72.501s75.5 24.167 131.5 31.5s91.667 15 107 23v-88zM658.001 1256c0 62.667 -28.1699 110.669 -84.5029 144.002
s-123.166 50 -200.499 50c-85.333 0 -158.666 -17.667 -219.999 -53c-60.667 -35.333 -94.667 -92 -102 -170h172c2 29.333 16 52 42 68s56.667 24 92 24s65.666 -8.16699 90.999 -24.5s38 -39.5 38 -69.5c0 -16 -8 -28.833 -24 -38.5s-33.167 -16.334 -51.5 -20.001
s-56.166 -10.167 -113.499 -19.5c-58.667 -10 -105.667 -20.5 -141 -31.5s-65.5 -29.833 -90.5 -56.5s-37.5 -64.334 -37.5 -113.001c0 -41.333 11.833 -77 35.5 -107s54.834 -52.667 93.501 -68s79.334 -23 122.001 -23c47.333 0 91.666 9.33301 132.999 28
c42 18.667 73.333 45.334 94 80.001c10.667 -69.333 51 -104 121 -104c28 0 60.667 6.66699 98 20v136c-25.333 0 -43 2.33301 -53 7c-9.33301 5.33301 -14 18.666 -14 39.999v301z" />
    <glyph glyph-name="guillemotleft" unicode="&#xab;" horiz-adv-x="889" 
d="M391 187v209l-186 153l186 158v205l-305 -246v-225zM793 187v209l-188 153l188 158v205l-311 -246v-225z" />
    <glyph glyph-name="logicalnot" unicode="&#xac;" horiz-adv-x="1164" 
d="M881 217h209v602h-1017v-204h808v-398z" />
    <glyph glyph-name="registered" unicode="&#xae;" horiz-adv-x="1563" 
d="M635 649h129l215 -358h154l-236 367c147.333 18.667 221 95.667 221 231c0 83.333 -25 144 -75 182c-50 38.667 -126 58 -228 58h-317v-838h137v358zM635 768v241.998h164c52.667 0 95.834 -7.66699 129.501 -23s50.5 -46 50.5 -92
c0 -37.333 -8.33301 -65.166 -25 -83.499s-38.334 -30.166 -65.001 -35.499s-60 -8 -100 -8h-154zM1518 718.998c0 112 -19.335 215.17 -58.002 309.503s-92.167 175.166 -160.5 242.499s-146.666 119.166 -234.999 155.499s-181.5 54.5 -279.5 54.5
c-100.667 0 -195.667 -18 -285 -54s-168.666 -87.667 -237.999 -155c-68.667 -68 -122.334 -149.167 -161.001 -243.5s-58 -197.5 -58 -309.5c0 -139.333 31.833 -266.5 95.5 -381.5s151.834 -205.5 264.501 -271.5c113.333 -66 240.666 -99 381.999 -99
c97.333 0 190.333 18.167 279 54.5s167 88.166 235 155.499c68.667 66.667 122.334 146.5 161.001 239.5s58 193.833 58 302.5zM1356 719.001c0 -119.333 -25 -226 -75 -320s-118.667 -167.333 -206 -220c-88 -52 -184.667 -78 -290 -78c-115.333 0 -217 27.333 -305 82
s-155.667 129 -203 223c-48 94.667 -72 199 -72 313c0 121.333 25.5 230 76.5 326s120.833 170.667 209.5 224c88 54 186 81 294 81c106 0 202.667 -27 290 -81c87.333 -53.333 156 -128 206 -224s75 -204.667 75 -326z" />
    <glyph glyph-name="plusminus" unicode="&#xb1;" horiz-adv-x="1164" 
d="M477 772h-404v-211h404v-250h205v250h408v211h-408v254h-205v-254zM73 0h1017v207h-1017v-207z" />
    <glyph glyph-name="twosuperior" unicode="&#xb2;" horiz-adv-x="713" 
d="M670 695h-430.999c10 25.333 26.667 48.5 50 69.5s51.666 41.833 84.999 62.5l111 68c65.333 44 116 88 152 132c35.333 44.667 53 97 53 157c0 88.667 -29.333 155.167 -88 199.5s-133.667 66.5 -225 66.5c-68 0 -126.667 -13.5 -176 -40.5s-87.5 -65.833 -114.5 -116.5
s-40.5 -109.667 -40.5 -177h172c2.66699 54.667 16 100.334 40 137.001c24.667 37.333 61.667 56 111 56c42 0 76.667 -11.333 104 -34s41 -54.334 41 -95.001c-1.33301 -41.333 -15.333 -77.333 -42 -108s-62 -60.167 -106 -88.5l-131 -84.5
c-128.667 -83.333 -195 -200 -199 -350h634v146z" />
    <glyph glyph-name="threesuperior" unicode="&#xb3;" horiz-adv-x="713" 
d="M291 963c72 0 129.334 -9.33203 172.001 -27.999c42.667 -18 64 -56.667 64 -116c0 -44 -16 -78.5 -48 -103.5s-72.667 -37.5 -122 -37.5c-54.667 0 -96.334 15.833 -125.001 47.5s-43 72.5 -43 122.5h-161c2.66699 -100 31.667 -177 87 -231
c54 -54.667 134.667 -82 242 -82c61.333 0 117 10.833 167 32.5s89.5 53.667 118.5 96s43.5 91.5 43.5 147.5c0 56.667 -14.167 104.334 -42.5 143.001s-68.833 62.667 -121.5 72v4c86.667 26 130 87 130 183c0 79.333 -29.167 138.666 -87.5 177.999s-128.833 59 -211.5 59
c-92.667 0 -166.5 -26.5 -221.5 -79.5s-84.5 -126.167 -88.5 -219.5h162c0 44.667 14 82.167 42 112.5s63.333 45.5 106 45.5c35.333 0 67 -8.83301 95 -26.5s42 -43.834 42 -78.501c0 -43.333 -19.667 -75.333 -59 -96s-86 -31 -140 -31v-114z" />
    <glyph glyph-name="acute" unicode="&#xb4;" horiz-adv-x="445" 
d="M65 1192h170l287 289h-274z" />
    <glyph glyph-name="mu" unicode="&#xb5;" horiz-adv-x="1118" 
d="M1016 1047l-227 -0.000976562v-606c0 -87.333 -20.667 -157 -62 -209c-40.667 -52 -106 -78 -196 -78c-66 0 -115.333 19.167 -148 57.5s-49 102.5 -49 192.5v643h-227v-398v-1032h227v426c39.333 -49.333 92.666 -74 159.999 -74c38 0 76.667 8 116 24
c38.667 16.667 73.834 38.334 105.501 65.001s56.167 56 73.5 88h4v-146h223v13v1034z" />
    <glyph glyph-name="paragraph" unicode="&#xb6;" horiz-adv-x="1164" 
d="M473 -324l161.999 -0.000976562v607v1032h232v-604v-1035h161v732v1042h-518c-96 0 -179.167 -13.333 -249.5 -40s-124.5 -68.667 -162.5 -126s-57 -130.333 -57 -219c0 -70.667 17.833 -133.667 53.5 -189s86.334 -98.666 152.001 -129.999s141.167 -47 226.5 -47v-1023
z" />
    <glyph glyph-name="periodcentered" unicode="&#xb7;" horiz-adv-x="531" 
d="M119 615c0 -47.333 14.501 -83.833 43.501 -109.5s63.5 -38.5 103.5 -38.5c41.333 0 76.666 12.833 105.999 38.5s44 62.167 44 109.5c0 45.333 -14.667 80.333 -44 105c-28.667 24 -64 36 -106 36c-40 0 -74.333 -12.333 -103 -37c-29.333 -24 -44 -58.667 -44 -104z
" />
    <glyph glyph-name="cedilla" unicode="&#xb8;" horiz-adv-x="445" 
d="M-4 -404c49.333 -30 113.665 -45 192.998 -45c71.333 0 132.5 15 183.5 45s76.5 76 76.5 138c0 28.667 -9 55 -27 79s-41.167 43 -69.5 57s-56.166 21 -83.499 21c-22.667 0 -42.667 -4.66699 -60 -14v4l93 119h-97l-135 -178l49 -36c22.667 11.333 48 17 76 17
c61.333 0 92 -26 92 -78s-33.333 -78 -100 -78c-33.333 0 -84.666 9.66699 -153.999 29z" />
    <glyph glyph-name="onesuperior" unicode="&#xb9;" horiz-adv-x="713" 
d="M66 1168l242.999 -0.000976562v-619h177v877h-140c-10.667 -47.333 -41.667 -82.166 -93 -104.499s-113.666 -33.5 -186.999 -33.5v-120z" />
    <glyph glyph-name="ordmasculine" unicode="&#xba;" horiz-adv-x="756" 
d="M564 1102c-4.66699 -61.333 -21.666 -112 -50.999 -152c-28.667 -40.667 -73.334 -61 -134.001 -61c-57.333 0 -101.833 20.833 -133.5 62.5s-47.5 91.167 -47.5 148.5c0 58 16 108.333 48 151s76.333 64 133 64c59.333 0 105 -21.5 137 -64.5s48 -92.5 48 -148.5z
M738.001 1102c0 69.333 -13.667 130.33 -41 182.997c-26.667 52.667 -67 93.334 -121 122.001s-119.667 43 -197 43c-112 0 -199.167 -31.667 -261.5 -95s-93.5 -147.666 -93.5 -252.999c0 -106.667 31.333 -191.667 94 -255c61.333 -63.333 148.333 -95 261 -95
c77.333 0 143 14.333 197 43s94.667 69.334 122 122.001c26.667 53.333 40 115 40 185z" />
    <glyph glyph-name="guillemotright" unicode="&#xbb;" horiz-adv-x="889" 
d="M106 912v-205l187 -158l-187 -153v-209l305 254v225zM502 912v-205l188 -158l-188 -153v-209l309 254v225z" />
    <glyph glyph-name="onequarter" unicode="&#xbc;" horiz-adv-x="1655" 
d="M1436 195h94v153h-94v521h-197l-372 -508v-166h395v-195h174v195zM1262 348h-242l238 322h4v-322zM61 1168l247.998 -0.000976562v-619h172l1 877h-140c-11.333 -47.333 -42.666 -82.166 -93.999 -104.499s-113.666 -33.5 -186.999 -33.5v-120zM273.998 -47.001h162
l262 479l576 1039h-156l-270 -486z" />
    <glyph glyph-name="onehalf" unicode="&#xbd;" horiz-adv-x="1655" 
d="M266 -47h162l262 479l576 1039h-156l-270 -486zM61 1168l243.998 -0.000976562v-619h177v877h-140c-11.333 -47.333 -42.666 -82.166 -93.999 -104.499s-113.666 -33.5 -186.999 -33.5v-120zM1572 141.999l-427.002 0.00292969c8.66699 24 24.667 47 48 69
c24 22 54 44.667 90 68l104 65c65.333 41.333 116.5 84.166 153.5 128.499s55.5 97.166 55.5 158.499c0 88 -29.333 155.333 -88 202s-134 70 -226 70c-106.667 0 -188 -30 -244 -90c-55.333 -60 -83 -144 -83 -252h172c5.33301 135.333 54.333 203 147 203
c40.667 0 74.334 -12.333 101.001 -37c27.333 -24.667 41 -58 41 -100c0 -30.667 -6.33301 -57.834 -19 -81.501s-30.167 -45 -52.5 -64s-53.166 -40.5 -92.499 -64.5l-72 -44c-74.667 -46 -133 -96.667 -175 -152s-63 -129 -63 -221h630v142z" />
    <glyph glyph-name="threequarters" unicode="&#xbe;" horiz-adv-x="1655" 
d="M1510 195h94v153h-94v521h-201l-363 -508v-166h387v-195h177v195zM1333 348h-235l231 322h5zM383 -47h159l269 479l570 1039h-158l-262 -486zM286 963c72.667 0 130.335 -9.33301 173.002 -28c42 -18 63 -56.667 63 -116c0 -44 -15.833 -78.5 -47.5 -103.5
s-72.167 -37.5 -121.5 -37.5c-54.667 0 -96.334 15.833 -125.001 47.5s-43 72.5 -43 122.5h-161c2 -99.333 30.667 -176.333 86 -231s136.333 -82 243 -82c61.333 0 117 10.833 167 32.5s89.5 53.667 118.5 96s43.5 91.5 43.5 147.5c0 56.667 -14.167 104.334 -42.5 143.001
s-68.833 62.667 -121.5 72v4c86 26 129 87 129 183c0 53.333 -14 98 -42 134s-64.5 62.167 -109.5 78.5s-93.5 24.5 -145.5 24.5c-92.667 0 -166.667 -26.5 -222 -79.5s-84.333 -126.167 -87 -219.5h159c0 44.667 14.167 82.167 42.5 112.5s64.166 45.5 107.499 45.5
c34.667 0 66 -8.83301 94 -26.5s42 -43.834 42 -78.501c0 -43.333 -19.667 -75.333 -59 -96s-86.333 -31 -141 -31v-114z" />
    <glyph glyph-name="questiondown" unicode="&#xbf;" 
d="M764 76c0 -89.333 -20.334 -159.499 -61.001 -210.499s-101 -76.5 -181 -76.5c-25.333 0 -53.666 7.66699 -84.999 23c-30.667 15.333 -57 39 -79 71s-33 71 -33 117c0 43.333 7 79.333 21 108c13.333 29.333 28.333 52.333 45 69s48 45 94 85
c39.333 32.667 70.333 65.334 93 98.001s39.167 73.5 49.5 122.5s15.5 112.833 15.5 191.5h-215c0 -87.333 -13.833 -153.333 -41.5 -198s-73.834 -94 -138.501 -148c-58 -46 -102.333 -92 -133 -138c-30 -46 -45 -110.667 -45 -194c0 -82 19.333 -153.333 58 -214
s91.5 -106.834 158.5 -138.501s141.5 -47.5 223.5 -47.5c72.667 0 139 11.667 199 35s111 56.333 153 99c42.667 43.333 74.834 94.166 96.501 152.499s32.5 122.833 32.5 193.5h-227zM394.999 1073v-250h271v250h-271z" />
    <glyph glyph-name="Agrave" unicode="&#xc0;" horiz-adv-x="1295" 
d="M643 1196h4h5l210 -622h-434zM-34 0h256l135 381h577l127 -381h272l-157 408l-391 1042h-271l-158 -416zM350 1882l285 -295h163l-177 295h-271z" />
    <glyph glyph-name="Aacute" unicode="&#xc1;" horiz-adv-x="1295" 
d="M643 1196h4h5l210 -622h-434zM-34 0h256l135 381h577l127 -381h272l-157 408l-391 1042h-271l-158 -416zM497 1560h165l288 290h-272z" />
    <glyph glyph-name="Acircumflex" unicode="&#xc2;" horiz-adv-x="1295" 
d="M643 1196h4h5l210 -622h-434zM-34 0h256l135 381h577l127 -381h272l-157 408l-391 1042h-271l-158 -416zM647 1770l146 -183h182l-215 295h-221l-218 -295h185z" />
    <glyph glyph-name="Atilde" unicode="&#xc3;" horiz-adv-x="1295" 
d="M643 1196h4h5l210 -622h-434zM-34 0h256l135 381h577l127 -381h272l-157 408l-391 1042h-271l-158 -416zM889 1845c-18 -57.333 -49.333 -86.0029 -94 -86.0029c-29.333 0 -72.333 13 -129 39c-47.333 19.333 -91.666 29 -132.999 29
c-39.333 0 -75.833 -8.16699 -109.5 -24.5s-62 -41.166 -85 -74.499s-38.5 -73.333 -46.5 -120h115c0 18.667 9 36.667 27 54s38 26 60 26c21.333 0 42.833 -3.16699 64.5 -9.5s49 -15.666 82 -27.999s59 -21.166 78 -26.499s39.833 -8 62.5 -8
c117.333 0 191.666 76.333 222.999 229h-115z" />
    <glyph glyph-name="Adieresis" unicode="&#xc4;" horiz-adv-x="1295" 
d="M643 1196h4h5l210 -622h-434zM-33 0h256l134 381h577l127 -381h272l-157 408l-391 1042h-271l-157 -416zM707 1833v-217h231v217h-231zM592 1616v217h-231v-217h231z" />
    <glyph glyph-name="Aring" unicode="&#xc5;" horiz-adv-x="1295" 
d="M643 1196h4h5l210 -622h-434zM-34 0h256l135 381h577l127 -381h272l-157 408l-391 1042h-271l-158 -416zM652 1513c61.333 0 109.332 20.666 143.999 61.999s52 90 52 146c0 34.667 -7.66699 68 -23 100c-14.667 32 -37 57.667 -67 77s-65.333 29 -106 29
c-43.333 0 -80.333 -9.66699 -111 -29s-53.667 -45 -69 -77c-16 -31.333 -24 -64.666 -24 -99.999c0 -56.667 17.833 -105.5 53.5 -146.5s85.834 -61.5 150.501 -61.5zM525.999 1721c0 36.667 12.667 65.668 38 87.001c24 20.667 53.333 31 88 31
c33.333 0 61.666 -10.333 84.999 -31s35 -49.667 35 -87s-12.167 -66.5 -36.5 -87.5s-52.166 -31.5 -83.499 -31.5c-34 0 -63.333 10.333 -88 31c-25.333 21.333 -38 50.666 -38 87.999z" />
    <glyph glyph-name="AE" unicode="&#xc6;" horiz-adv-x="1917" 
d="M840 1227h70v-666h-383zM-17 0h279l174 369h474v-369h952v217h-709v424h654v207h-654v379h699v223h-136h-1021l-205 -416z" />
    <glyph glyph-name="Ccedilla" unicode="&#xc7;" horiz-adv-x="1432" 
d="M770 -33l-64.001 -86.0029c26.667 6.66699 46.667 10 60 10c44.667 0 85.834 -15.333 123.501 -46s56.5 -67.667 56.5 -111c0 -62 -25.333 -108 -76 -138s-112 -45 -184 -45c-78.667 0 -143 15 -193 45l38 80c60 -20.667 110.333 -31 151 -31c68.667 0 103 26.667 103 80
s-31 80 -93 80c-27.333 0 -53.666 -6.33301 -78.999 -19l-50 36l114 149c-74 7.33301 -142.667 25.333 -206 54c-86 38.667 -159.333 92.834 -220 162.501s-106.834 150.167 -138.501 241.5s-47.5 188 -47.5 290c0 104.667 16 203.167 48 295.5s78 173.5 138 243.5
c60.667 70 133.667 124.667 219 164s180.666 59 285.999 59c106 0 203.333 -19.667 292 -59s160.667 -96.5 216 -171.5s87.333 -163.5 96 -265.5h-246c-26.667 90.667 -68.667 161.834 -126 213.501s-134.666 77.5 -231.999 77.5c-94.667 0 -175.5 -26.167 -242.5 -78.5
s-117.5 -121 -151.5 -206s-51 -175.167 -51 -270.5c0 -94 17 -183.333 51 -268s84.5 -153 151.5 -205s147.833 -78 242.5 -78c70.667 0 132.5 16.667 185.5 50s94.667 78.833 125 136.5s49.166 121.834 56.499 192.501h241c-4 -85.333 -21.667 -164 -53 -236
c-31.333 -71.333 -74 -133 -128 -185c-54 -51.333 -117.333 -91 -190 -119c-69.333 -26.667 -143.666 -40.667 -222.999 -42z" />
    <glyph glyph-name="Egrave" unicode="&#xc8;" horiz-adv-x="1252" 
d="M149 0h19h1024v217h-797v424h728v207h-728v379h785v223h-8h-1023v-416v-1034zM329 1882l288 -295h164l-181 295h-271z" />
    <glyph glyph-name="Eacute" unicode="&#xc9;" horiz-adv-x="1252" 
d="M149 0h19h1024v217h-797v424h728v207h-728v379h785v223h-8h-1023v-416v-1034zM477 1587h166l287 295h-272z" />
    <glyph glyph-name="Ecircumflex" unicode="&#xca;" horiz-adv-x="1252" 
d="M149 0h19h1024v217h-797v424h728v207h-728v379h785v223h-8h-1023v-416v-1034zM629 1770l143 -183h185l-219 295h-220l-217 -295h184z" />
    <glyph glyph-name="Edieresis" unicode="&#xcb;" horiz-adv-x="1252" 
d="M150 0h18h1024v217h-796v424h727v207h-727v379h784v223h-8h-1022v-416v-1034zM686 1833v-217h228v217h-228zM567 1616v217h-225v-217h225z" />
    <glyph glyph-name="Igrave" unicode="&#xcc;" horiz-adv-x="531" 
d="M142 0h246l-1 408v1042h-245v-416v-1034zM-33 1882l287 -295h162l-180 295h-269z" />
    <glyph glyph-name="Iacute" unicode="&#xcd;" horiz-adv-x="531" 
d="M142 0h245v408v1042h-245v-416v-1034zM119 1579h164l280 291h-266z" />
    <glyph glyph-name="Icircumflex" unicode="&#xce;" horiz-adv-x="531" 
d="M141 0h246v408v1042h-246v-416v-1034zM266 1770l142 -183h188l-219 295h-221l-210 -295h180z" />
    <glyph glyph-name="Idieresis" unicode="&#xcf;" horiz-adv-x="531" 
d="M142 0h245v408v1042h-245v-416v-1034zM326 1833v-217h227v217h-227zM209 1616v217h-226v-217h226z" />
    <glyph glyph-name="Eth" unicode="&#xd0;" horiz-adv-x="1432" 
d="M146 0l591.999 -0.000976562c106.667 0 200.334 18.5 281.001 55.5s146.667 88.167 198 153.5s89.333 141 114 227c24.667 86.667 37 181 37 283c0 105.333 -12.333 202 -37 290s-62.667 165 -114 231c-52 66.667 -118.167 118.334 -198.5 155.001s-173.833 55 -280.5 55
h-592v-602h-138v-207h138v-641zM390.999 1239h251.998c124.667 0 222.334 -21.667 293.001 -65c71.333 -44 120.333 -104 147 -180s40 -167.667 40 -275c0 -103.333 -13.5 -192.5 -40.5 -267.5s-75.667 -134.5 -146 -178.5s-168.166 -66 -293.499 -66h-252v434h398v207h-398
v391z" />
    <glyph glyph-name="Ntilde" unicode="&#xd1;" horiz-adv-x="1432" 
d="M133 0v1450h263l659 -1069v1069h242v-1450h-264l-660 1061v-1061h-240zM961 1845l109 0.000976562c-12.667 -67.333 -37 -122.333 -73 -165s-85.667 -64 -149 -64c-22 0 -43.167 2.83301 -63.5 8.5s-46.833 14.5 -79.5 26.5c-33.333 12.667 -60.5 22 -81.5 28
s-42.5 9 -64.5 9s-41.167 -8.66699 -57.5 -26s-24.5 -35.333 -24.5 -54h-116c11.333 71.333 38.333 125.666 81 162.999c43.333 37.333 95.333 56 156 56c41.333 0 86.333 -9.66699 135 -29c57.333 -27.333 101.333 -41 132 -41c47.333 0 79.333 29.333 96 88z" />
    <glyph glyph-name="Ograve" unicode="&#xd2;" horiz-adv-x="1518" 
d="M760 1481c-104.667 0 -199.665 -19.332 -284.998 -57.999c-86 -40 -159.333 -95 -220 -165c-60 -70 -106 -151.167 -138 -243.5s-48 -190.833 -48 -295.5c0 -102 15.833 -198.667 47.5 -290s77.834 -171.833 138.501 -241.5s134 -123.834 220 -162.501s181 -58 285 -58
s199 19.5 285 58.5s159 92.833 219 161.5c59.333 69.333 104.833 149.333 136.5 240s47.5 188 47.5 292c0 106 -15.833 205 -47.5 297s-77.334 172.833 -137.001 242.5s-132.334 124.167 -218.001 163.5s-180.834 59 -285.501 59zM760.002 1276
c70.667 0 133.335 -15.1709 188.002 -45.5039s100.334 -72.166 137.001 -125.499c36 -52.667 63.167 -112.167 81.5 -178.5s27.5 -134.833 27.5 -205.5c0 -69.333 -9 -137 -27 -203c-18.667 -65.333 -46.334 -124.666 -83.001 -177.999
c-36.667 -52.667 -82.334 -94.167 -137.001 -124.5s-117 -45.5 -187 -45.5c-94 0 -174.667 26 -242 78s-118 120.333 -152 205s-51 174 -51 268c0 70 9.66699 138.333 29 205s47.666 126.334 84.999 179.001s84 94.334 140 125.001s119.667 46 191 46zM459.003 1882
l283 -295h168l-185 295h-266z" />
    <glyph glyph-name="Oacute" unicode="&#xd3;" horiz-adv-x="1518" 
d="M760 1481c-104.667 0 -199.665 -19.332 -284.998 -57.999c-86 -40 -159.333 -95 -220 -165c-60 -70 -106 -151.167 -138 -243.5s-48 -190.833 -48 -295.5c0 -102 15.833 -198.667 47.5 -290s77.834 -171.833 138.501 -241.5s134 -123.834 220 -162.501s181 -58 285 -58
s199 19.5 285 58.5s159 92.833 219 161.5c59.333 69.333 104.833 149.333 136.5 240s47.5 188 47.5 292c0 106 -15.833 205 -47.5 297s-77.334 172.833 -137.001 242.5s-132.334 124.167 -218.001 163.5s-180.834 59 -285.501 59zM760.002 1276
c70.667 0 133.335 -15.1709 188.002 -45.5039s100.334 -72.166 137.001 -125.499c36 -52.667 63.167 -112.167 81.5 -178.5s27.5 -134.833 27.5 -205.5c0 -69.333 -9 -137 -27 -203c-18.667 -65.333 -46.334 -124.666 -83.001 -177.999
c-36.667 -52.667 -82.334 -94.167 -137.001 -124.5s-117 -45.5 -187 -45.5c-94 0 -174.667 26 -242 78s-118 120.333 -152 205s-51 174 -51 268c0 70 9.66699 138.333 29 205s47.666 126.334 84.999 179.001s84 94.334 140 125.001s119.667 46 191 46zM608.003 1561h168
l281 289h-268z" />
    <glyph glyph-name="Ocircumflex" unicode="&#xd4;" horiz-adv-x="1518" 
d="M760 1481c-104.667 0 -199.83 -19.666 -285.497 -58.999s-158.834 -94 -219.501 -164c-60 -70 -106 -151.167 -138 -243.5s-48 -190.833 -48 -295.5c0 -102 15.833 -198.667 47.5 -290s77.834 -171.833 138.501 -241.5s134 -123.834 220 -162.501s181 -58 285 -58
s199 19.5 285 58.5s159 92.833 219 161.5c59.333 69.333 104.833 149.333 136.5 240s47.5 188 47.5 292c0 106 -15.833 205 -47.5 297s-77.334 172.833 -137.001 242.5s-132.334 124.167 -218.001 163.5s-180.834 59 -285.501 59zM760.004 1276
c70.667 0 133.335 -15.1709 188.002 -45.5039s100.334 -72.166 137.001 -125.499c36 -52.667 63.167 -112.167 81.5 -178.5s27.5 -134.833 27.5 -205.5c0 -69.333 -9 -137 -27 -203c-18.667 -65.333 -46.334 -124.666 -83.001 -177.999
c-36.667 -52.667 -82.334 -94.167 -137.001 -124.5s-117 -45.5 -187 -45.5c-94 0 -174.667 26 -242 78s-118 120.333 -152 205s-51 174 -51 268c0 70 9.66699 138.333 29 205s47.666 126.334 84.999 179.001s84 94.334 140 125.001s119.667 46 191 46zM760.005 1770
l137 -183h193l-219 295h-224l-211 -295h184z" />
    <glyph glyph-name="Otilde" unicode="&#xd5;" horiz-adv-x="1518" 
d="M760 1481c-104.667 0 -199.83 -19.666 -285.497 -58.999s-158.834 -94 -219.501 -164c-60 -70 -106 -151.167 -138 -243.5s-48 -190.833 -48 -295.5c0 -102 15.833 -198.667 47.5 -290s77.834 -171.833 138.501 -241.5s134 -123.834 220 -162.501s181 -58 285 -58
s199 19.5 285 58.5s159 92.833 219 161.5c59.333 69.333 104.833 149.333 136.5 240s47.5 188 47.5 292c0 106 -15.833 205 -47.5 297s-77.334 172.833 -137.001 242.5s-132.334 124.167 -218.001 163.5s-180.834 59 -285.501 59zM760.004 1276
c70.667 0 133.335 -15.1709 188.002 -45.5039s100.334 -72.166 137.001 -125.499c36 -52.667 63.167 -112.167 81.5 -178.5s27.5 -134.833 27.5 -205.5c0 -69.333 -9 -137 -27 -203c-18.667 -65.333 -46.334 -124.666 -83.001 -177.999
c-36.667 -52.667 -82.334 -94.167 -137.001 -124.5s-117 -45.5 -187 -45.5c-94 0 -174.667 26 -242 78s-118 120.333 -152 205s-51 174 -51 268c0 70 9.66699 138.333 29 205s47.666 126.334 84.999 179.001s84 94.334 140 125.001s119.667 46 191 46zM1000 1845
c-15.333 -61.333 -49.6641 -92.001 -102.997 -92.001c-21.333 0 -42 3.33301 -62 10s-45.333 16.667 -76 30s-56.334 23.333 -77.001 30s-42.334 10 -65.001 10c-58 0 -105 -22.667 -141 -68s-60.333 -97.666 -73 -156.999h115c0 18.667 8.5 36.667 25.5 54
s37.167 26 60.5 26c21.333 0 42.666 -3 63.999 -9s49 -15.5 83 -28.5s60 -21.833 78 -26.5c18.667 -5.33301 38.667 -8 60 -8c64.667 0 116.167 21.5 154.5 64.5s61.833 97.833 70.5 164.5h-114z" />
    <glyph glyph-name="Odieresis" unicode="&#xd6;" horiz-adv-x="1518" 
d="M760 1481c-104.667 0 -199.664 -19.3311 -284.997 -57.998c-86 -40 -159.333 -95 -220 -165c-60 -70 -106 -151 -138 -243c-31.333 -92.667 -47 -191.334 -47 -296.001c0 -102 15.667 -198.667 47 -290s77.333 -171.833 138 -241.5s134 -123.834 220 -162.501
s181 -58 285 -58s199 19.5 285 58.5s159 92.833 219 161.5c59.333 69.333 104.833 149.333 136.5 240s47.5 188 47.5 292c0 106 -15.833 205 -47.5 297s-77.334 172.833 -137.001 242.5s-132.334 124.167 -218.001 163.5s-180.834 59 -285.501 59zM760.003 1276
c70.667 0 133.335 -15.1709 188.002 -45.5039s100.334 -72.166 137.001 -125.499c36 -52.667 63.167 -112.167 81.5 -178.5s27.5 -134.833 27.5 -205.5c0 -69.333 -9 -137 -27 -203c-18.667 -65.333 -46.334 -124.666 -83.001 -177.999
c-36.667 -52.667 -82.334 -94.167 -137.001 -124.5s-117 -45.5 -187 -45.5c-94 0 -174.667 26 -242 78s-117.833 120.333 -151.5 205s-50.5 174 -50.5 268c0 70 9.33301 138.333 28 205c19.333 66.667 47.666 126.334 84.999 179.001s84 94.334 140 125.001
s119.667 46 191 46zM819.004 1833v-217h228v217h-228zM702.004 1616v217h-229v-217h229z" />
    <glyph glyph-name="Oslash" unicode="&#xd8;" horiz-adv-x="1518" 
d="M391 396c-48 101.333 -71.998 211.001 -71.998 329.001c0 95.333 16.167 185.166 48.5 269.499s81.666 152.333 147.999 204s147.833 77.5 244.5 77.5c121.333 0 219.666 -43 294.999 -129zM1123 1051c48.667 -96 73.001 -204 73.001 -324
c0 -94.667 -16.333 -184.667 -49 -270s-82.167 -154.5 -148.5 -207.5s-145.833 -79.5 -238.5 -79.5c-122.667 0 -222.334 43.667 -299.001 131zM1354 1489l-150.002 -169.998c-121.333 108 -269.333 162 -444 162c-106.667 0 -203 -21 -289 -63s-158.5 -99.333 -217.5 -172
s-104.167 -155.5 -135.5 -248.5s-47 -188.5 -47 -286.5c0 -90 13.5 -177.833 40.5 -263.5s66.833 -163.834 119.5 -234.501l-158 -180l87 -74l154 170c118.667 -108 267.334 -162 446.001 -162c104.667 0 199.667 21.167 285 63.5s157.833 100 217.5 173
s104.834 155.333 135.501 247s46 186.5 46 284.5c0 91.333 -13.5 179.666 -40.5 264.999s-67.5 162.333 -121.5 231l162 182z" />
    <glyph glyph-name="Ugrave" unicode="&#xd9;" horiz-adv-x="1432" 
d="M129 518c0 -120 23.8291 -221.333 71.4961 -304s115.334 -144.5 203.001 -185.5s190.834 -61.5 309.501 -61.5s222.5 20.5 311.5 61.5s157.833 103.167 206.5 186.5c49.333 82.667 74 183.667 74 303v932h-254v-844c0 -86.667 -6.33301 -158.834 -19 -216.501
s-43.667 -106.5 -93 -146.5s-124.666 -60 -225.999 -60c-78 0 -139.833 11.833 -185.5 35.5s-79.5 55.834 -101.5 96.501c-21.333 40 -34.666 82.333 -39.999 127c-6 45.333 -9 100 -9 164v844h-248v-932zM415.996 1882l287 -295h164l-181 295h-270z" />
    <glyph glyph-name="Uacute" unicode="&#xda;" horiz-adv-x="1432" 
d="M129 518c0 -120 23.8291 -221.333 71.4961 -304s115.334 -144.5 203.001 -185.5s190.834 -61.5 309.501 -61.5s222.5 20.5 311.5 61.5s157.833 103.167 206.5 186.5c49.333 82.667 74 183.667 74 303v932h-254v-844c0 -86.667 -6.33301 -158.834 -19 -216.501
s-43.667 -106.5 -93 -146.5s-124.666 -60 -225.999 -60c-78 0 -139.833 11.833 -185.5 35.5s-79.5 55.834 -101.5 96.501c-21.333 40 -34.666 82.333 -39.999 127c-6 45.333 -9 100 -9 164v844h-248v-932zM562.996 1561h166l288 289h-271z" />
    <glyph glyph-name="Ucircumflex" unicode="&#xdb;" horiz-adv-x="1432" 
d="M129 518c0 -120 23.8291 -221.333 71.4961 -304s115.334 -144.5 203.001 -185.5s190.834 -61.5 309.501 -61.5s222.5 20.5 311.5 61.5s157.833 103.167 206.5 186.5c49.333 82.667 74 183.667 74 303v932h-254v-844c0 -86.667 -6.33301 -158.834 -19 -216.501
s-43.667 -106.5 -93 -146.5s-124.666 -60 -225.999 -60c-78 0 -139.833 11.833 -185.5 35.5s-79.5 55.834 -101.5 96.501c-21.333 40 -34.666 82.333 -39.999 127c-6 45.333 -9 100 -9 164v844h-248v-932zM712.996 1770l145 -183h187l-217 295h-219l-222 -295h185z" />
    <glyph glyph-name="Udieresis" unicode="&#xdc;" horiz-adv-x="1432" 
d="M129 518c0 -120 23.8291 -221.333 71.4961 -304s115.334 -144.5 203.001 -185.5s190.834 -61.5 309.501 -61.5s222.5 20.5 311.5 61.5s157.833 103.167 206.5 186.5c49.333 82.667 74 183.667 74 303v932h-254v-844c0 -86.667 -6.33301 -158.834 -19 -216.501
s-43.667 -106.5 -93 -146.5s-124.666 -60 -225.999 -60c-78 0 -139.833 11.833 -185.5 35.5s-79.5 55.834 -101.5 96.501c-21.333 40 -34.666 82.333 -39.999 127c-6 45.333 -9 100 -9 164v844h-248v-932zM775.996 1833v-217h228v217h-228zM656.996 1616v217h-225v-217h225z
" />
    <glyph glyph-name="Yacute" unicode="&#xdd;" horiz-adv-x="1295" 
d="M522 0h250v565l537 885h-281l-374 -649l-379 649h-292l539 -885v-565zM494 1561h168l289 289h-277z" />
    <glyph glyph-name="Thorn" unicode="&#xde;" horiz-adv-x="1295" 
d="M133 0h246v336h385c125.333 0 224.5 23 297.5 69s123 102.5 150 169.5s40.5 135.833 40.5 206.5c0 71.333 -13.5 140.5 -40.5 207.5s-76.833 123.5 -149.5 169.5s-172 69 -298 69h-385v223h-246v-416v-1034zM379 1022l377 -0.000976562c162.667 0 244 -79 244 -237
c0 -57.333 -12.333 -104.166 -37 -140.499s-56 -62.5 -94 -78.5s-77.667 -24 -119 -24h-371v480z" />
    <glyph glyph-name="germandbls" unicode="&#xdf;" horiz-adv-x="1118" 
d="M111 0h226v1034c0 96.667 20.833 165.334 62.5 206.001s90.167 61 145.5 61c134 0 201 -69 201 -207c0 -76.667 -26.333 -132.667 -79 -168s-118.667 -53 -198 -53v-156c94 0 174.5 -19.167 241.5 -57.5s100.5 -101.166 100.5 -188.499
c0 -92 -17.5 -167.833 -52.5 -227.5s-106.167 -89.5 -213.5 -89.5c-36.667 0 -62 1.33301 -76 4v-179c49.333 -5.33301 86.333 -8 111 -8c91.333 0 172 21.333 242 64c70.667 41.333 124.667 99.333 162 174c38 74 57 158 57 252c0 55.333 -10.833 108.666 -32.5 159.999
s-52.834 93.666 -93.501 126.999c-40.667 34 -88.334 53.667 -143.001 59v4c66 20 116.333 58 151 114s52 119.667 52 191c0 74.667 -20 139.667 -60 195s-92.667 97.333 -158 126c-65.333 29.333 -134.666 44 -207.999 44c-85.333 0 -161.166 -17 -227.499 -51
s-118 -83 -155 -147s-55.5 -139.333 -55.5 -226v-23v-1034z" />
    <glyph glyph-name="agrave" unicode="&#xe0;" 
d="M733 353c0 -66 -27.335 -115.667 -82.002 -149s-112.667 -50 -174 -50c-51.333 0 -98.666 10.667 -141.999 32c-43.333 22 -65 57 -65 105c0 68 23.333 112.667 70 134s116 38 208 50c92.667 11.333 154.334 27 185.001 47v-169zM962.998 772
c0 102.667 -40.667 178.669 -122 228.002c-80.667 48.667 -178 73 -292 73c-130.667 0 -240.167 -26.667 -328.5 -80s-137.166 -143.333 -146.499 -270h231c12 112 88.667 168 230 168c143.333 0 215 -47.667 215 -143c0 -39.333 -13 -67.333 -39 -84
c-25.333 -16.667 -61.333 -28.334 -108 -35.001l-162 -23c-84.667 -12 -154.167 -27 -208.5 -45s-99.833 -49.333 -136.5 -94s-55 -107.334 -55 -188.001c0 -67.333 16.667 -124 50 -170s77.5 -80.167 132.5 -102.5s115.167 -33.5 180.5 -33.5c67.333 0 133 11.667 197 35
c64 22 115.667 53 155 93c12.667 -85.333 70.667 -128 174 -128c51.333 0 99 9 143 27v158c-18.667 -2.66699 -32.334 -4 -41.001 -4c-46 2 -69 27.333 -69 76v542zM231.998 1481l286 -289h168l-184 289h-270z" />
    <glyph glyph-name="aacute" unicode="&#xe1;" 
d="M733 353c0 -66 -27.335 -115.667 -82.002 -149s-112.667 -50 -174 -50c-51.333 0 -98.666 10.667 -141.999 32c-43.333 22 -65 57 -65 105c0 68 23.333 112.667 70 134s116 38 208 50c92.667 11.333 154.334 27 185.001 47v-169zM962.998 772
c0 102.667 -40.667 178.669 -122 228.002c-80.667 48.667 -178 73 -292 73c-130.667 0 -240.167 -26.667 -328.5 -80s-137.166 -143.333 -146.499 -270h231c12 112 88.667 168 230 168c143.333 0 215 -47.667 215 -143c0 -39.333 -13 -67.333 -39 -84
c-25.333 -16.667 -61.333 -28.334 -108 -35.001l-162 -23c-84.667 -12 -154.167 -27 -208.5 -45s-99.833 -49.333 -136.5 -94s-55 -107.334 -55 -188.001c0 -67.333 16.667 -124 50 -170s77.5 -80.167 132.5 -102.5s115.167 -33.5 180.5 -33.5c67.333 0 133 11.667 197 35
c64 22 115.667 53 155 93c12.667 -85.333 70.667 -128 174 -128c51.333 0 99 9 143 27v158c-18.667 -2.66699 -32.334 -4 -41.001 -4c-46 2 -69 27.333 -69 76v542zM378.998 1192h170l287 289h-277z" />
    <glyph glyph-name="acircumflex" unicode="&#xe2;" 
d="M733 353c0 -66 -27.335 -115.667 -82.002 -149s-112.667 -50 -174 -50c-51.333 0 -98.666 10.667 -141.999 32c-43.333 22 -65 57 -65 105c0 68 23.333 112.667 70 134s116 38 208 50c92.667 11.333 154.334 27 185.001 47v-169zM962.998 772
c0 102.667 -40.667 178.669 -122 228.002c-80.667 48.667 -178 73 -292 73c-130.667 0 -240.167 -26.667 -328.5 -80s-137.166 -143.333 -146.499 -270h231c12 112 88.667 168 230 168c143.333 0 215 -47.667 215 -143c0 -39.333 -13 -67.333 -39 -84
c-25.333 -16.667 -61.333 -28.334 -108 -35.001l-162 -23c-84.667 -12 -154.167 -27 -208.5 -45s-99.833 -49.333 -136.5 -94s-55 -107.334 -55 -188.001c0 -67.333 16.667 -124 50 -170s77.5 -80.167 132.5 -102.5s115.167 -33.5 180.5 -33.5c67.333 0 133 11.667 197 35
c64 22 115.667 53 155 93c12.667 -85.333 70.667 -128 174 -128c51.333 0 99 9 143 27v158c-18.667 -2.66699 -32.334 -4 -41.001 -4c-46 2 -69 27.333 -69 76v542zM534.998 1374l139 -182h188l-215 289h-223l-215 -289h182z" />
    <glyph glyph-name="atilde" unicode="&#xe3;" 
d="M733 353c0 -66 -27.335 -115.667 -82.002 -149s-112.667 -50 -174 -50c-51.333 0 -98.666 10.667 -141.999 32c-43.333 22 -65 57 -65 105c0 68 23.333 112.667 70 134s116 38 208 50c92.667 11.333 154.334 27 185.001 47v-169zM962.998 772
c0 102.667 -40.667 178.669 -122 228.002c-80.667 48.667 -178 73 -292 73c-130.667 0 -240.167 -26.667 -328.5 -80s-137.166 -143.333 -146.499 -270h231c12 112 88.667 168 230 168c143.333 0 215 -47.667 215 -143c0 -39.333 -13 -67.333 -39 -84
c-25.333 -16.667 -61.333 -28.334 -108 -35.001l-162 -23c-84.667 -12 -154.167 -27 -208.5 -45s-99.833 -49.333 -136.5 -94s-55 -107.334 -55 -188.001c0 -67.333 16.667 -124 50 -170s77.5 -80.167 132.5 -102.5s115.167 -33.5 180.5 -33.5c67.333 0 133 11.667 197 35
c64 22 115.667 53 155 93c12.667 -85.333 70.667 -128 174 -128c51.333 0 99 9 143 27v158c-18.667 -2.66699 -32.334 -4 -41.001 -4c-46 2 -69 27.333 -69 76v542zM775.998 1450c-12 -60 -46 -89.999 -102 -89.999c-20 0 -41.333 3.16699 -64 9.5s-50 15.166 -82 26.499
s-59.333 20.5 -82 27.5s-42.334 10.5 -59.001 10.5c-56 0 -102 -23.333 -138 -70s-59 -100 -69 -160h113c0 20 9 39.667 27 59c17.333 20 36.333 30 57 30c27.333 0 58 -6.66699 92 -20l104 -41c34.667 -13.333 65.667 -20 93 -20c64.667 0 115.334 22.333 152.001 67
s59 101.667 67 171h-109z" />
    <glyph glyph-name="adieresis" unicode="&#xe4;" 
d="M733 353c0 -66 -27.335 -115.667 -82.002 -149s-112.667 -50 -174 -50c-51.333 0 -98.666 10.667 -141.999 32c-42.667 22 -64 57 -64 105c0 68 23 112.667 69 134c46.667 21.333 116 38 208 50c92.667 11.333 154.334 27 185.001 47v-169zM962.998 772
c0 102.667 -40.667 178.669 -122 228.002c-80.667 48.667 -178 73 -292 73c-130.667 0 -240.167 -26.667 -328.5 -80s-137.166 -143.333 -146.499 -270h231c12 112 88.667 168 230 168c143.333 0 215 -47.667 215 -143c0 -39.333 -13 -67.333 -39 -84
c-25.333 -16.667 -61.333 -28.334 -108 -35.001l-162 -23c-84.667 -12 -154.167 -27 -208.5 -45s-99.833 -49.333 -136.5 -94s-55 -107.334 -55 -188.001c0 -67.333 16.667 -124 50 -170s77.5 -80.167 132.5 -102.5s115.167 -33.5 180.5 -33.5c67.333 0 133 11.667 197 35
c64 22 115.667 53 155 93c12.667 -85.333 70.667 -128 174 -128c51.333 0 99 9 143 27v158c-18.667 -2.66699 -32.334 -4 -41.001 -4c-46 2 -69 27.333 -69 76v542zM595.998 1430v-218h228v218h-228zM476.998 1212v218h-229v-218h229z" />
    <glyph glyph-name="aring" unicode="&#xe5;" 
d="M733 353c0 -66 -27.335 -115.667 -82.002 -149s-112.667 -50 -174 -50c-51.333 0 -98.666 10.667 -141.999 32c-43.333 22 -65 57 -65 105c0 68 23.333 112.667 70 134s116 38 208 50c92.667 11.333 154.334 27 185.001 47v-169zM962.998 772
c0 102.667 -40.667 178.669 -122 228.002c-80.667 48.667 -178 73 -292 73c-130.667 0 -240.167 -26.667 -328.5 -80s-137.166 -143.333 -146.499 -270h231c12 112 88.667 168 230 168c143.333 0 215 -47.667 215 -143c0 -39.333 -13 -67.333 -39 -84
c-25.333 -16.667 -61.333 -28.334 -108 -35.001l-162 -23c-84.667 -12 -154.167 -27 -208.5 -45s-99.833 -49.333 -136.5 -94s-55 -107.334 -55 -188.001c0 -67.333 16.667 -124 50 -170s77.5 -80.167 132.5 -102.5s115.167 -33.5 180.5 -33.5c67.333 0 133 11.667 197 35
c64 22 115.667 53 155 93c12.667 -85.333 70.667 -128 174 -128c51.333 0 99 9 143 27v158c-18.667 -2.66699 -32.334 -4 -41.001 -4c-46 2 -69 27.333 -69 76v542zM534.998 1114c61.333 0 109.333 20.334 144 61.001s52 88.667 52 144c0 56.667 -17.333 105.667 -52 147
s-82.667 62 -144 62c-62 0 -110.333 -20.333 -145 -61s-52 -89.334 -52 -146.001c0 -56 17.333 -104.5 52 -145.5s83 -61.5 145 -61.5zM410.998 1321c0 38 12.1689 67.3311 36.502 87.998s53.5 31 87.5 31c33.333 0 62.166 -10.333 86.499 -31s36.5 -50 36.5 -88
c0 -37.333 -12.333 -67.166 -37 -89.499s-53.334 -33.5 -86.001 -33.5c-34 0 -63.167 10.833 -87.5 32.5s-36.5 51.834 -36.5 90.501z" />
    <glyph glyph-name="ae" unicode="&#xe6;" horiz-adv-x="1741" 
d="M957 618c5.33301 79.333 30.333 144.667 75 196s105.667 77 183 77c83.333 0 148.333 -24.667 195 -74c47.333 -48.667 71 -115 71 -199h-524zM738 365.001c0 -66 -25.666 -117.667 -76.999 -155c-50.667 -37.333 -110.334 -56 -179.001 -56
c-58 0 -107.167 10.5 -147.5 31.5s-60.5 56.167 -60.5 105.5c0 96 62.667 154 188 174c21.333 2.66699 55.666 6 102.999 10s84.333 9 111 15s47.334 15.333 62.001 28v-153zM1473 328.001c-39.333 -116 -121.336 -174 -246.003 -174c-59.333 0 -109.333 14.333 -150 43
s-71 67 -91 115c-19.333 47.333 -29 98.333 -29 153h753c0 6.66699 0.333008 16 1 28s1 20.333 1 25c0 110 -17.5 206.5 -52.5 289.5s-88.667 148 -161 195s-162.833 70.5 -271.5 70.5c-66 0 -128.167 -11.167 -186.5 -33.5s-106.166 -57.5 -143.499 -105.5
c-35.333 55.333 -82.666 92.333 -141.999 111s-129.333 28 -210 28c-126.667 0 -233.667 -26.667 -321 -80s-136 -143.333 -146 -270h231c12 112 88.667 168 230 168c135.333 0 203 -47.667 203 -143c0 -40 -12 -68.333 -36 -85s-58.667 -28 -104 -34l-157 -23
c-85.333 -12 -155.166 -27 -209.499 -45s-100 -49.333 -137 -94s-55.5 -107.334 -55.5 -188.001c0 -99.333 35 -175.5 105 -228.5s159.333 -79.5 268 -79.5c94 0 179 15.833 255 47.5s136.333 79.5 181 143.5c25.333 -44 56 -80.5 92 -109.5s75.5 -50.5 118.5 -64.5
s88.167 -21 135.5 -21c72 0 143.5 15.333 214.5 46s132.5 73.334 184.5 128.001s87 117 105 187h-229z" />
    <glyph glyph-name="ccedilla" unicode="&#xe7;" 
d="M595 -27l-73.001 -93.001l30 9c8 1.33301 18.667 2 32 2c42.667 0 82.667 -15.333 120 -46s56 -67.667 56 -111c0 -42 -12 -76.667 -36 -104s-55.667 -47.333 -95 -60c-38.667 -12.667 -81 -19 -127 -19c-80.667 0 -145 15 -193 45l37 80c70.667 -19.333 122 -29 154 -29
c66.667 0 100 26 100 78c0 27.333 -8.83301 47.166 -26.5 59.499s-39.5 18.5 -65.5 18.5c-28 0 -53.333 -5.66699 -76 -17l-49 36l115 151c-84 6.66699 -158 29.334 -222 68.001c-76.667 46.667 -134.834 110.834 -174.501 192.501s-59.5 173.834 -59.5 276.501
c0 107.333 19.5 203.666 58.5 288.999s97 152.333 174 201s170.5 73 280.5 73c129.333 0 237.5 -31.667 324.5 -95s135.167 -156.333 144.5 -279h-229c-7.33301 61.333 -32.333 109 -75 143c-42.667 32.667 -97.667 49 -165 49c-60.667 0 -113.167 -17.667 -157.5 -53
s-77.5 -82 -99.5 -140c-23.333 -58 -35 -119.333 -35 -184c0 -62.667 11 -121.5 33 -176.5s54.667 -99.5 98 -133.5c42.667 -33.333 94.334 -50 155.001 -50c44.667 0 84.334 9.33301 119.001 28s63 46 85 82s36 78.333 42 127h229c-20.667 -134.667 -71.667 -238 -153 -310
c-72.667 -64.667 -164.667 -100.667 -276 -108z" />
    <glyph glyph-name="egrave" unicode="&#xe8;" 
d="M1037 465c2.66699 18 4.00098 43.332 4.00098 75.999c0 96 -20.5 184.667 -61.5 266s-99.167 146 -174.5 194s-162 72 -260 72c-99.333 0 -187.333 -24.833 -264 -74.5s-135.5 -116.5 -176.5 -200.5s-61.5 -176 -61.5 -276c0 -107.333 20 -202.666 60 -285.999
s98.5 -148.333 175.5 -195s168.5 -70 274.5 -70c116 0 217 32 303 96c86.667 62.667 143 149.667 169 261h-218c-38.667 -116 -123.334 -174 -254.001 -174c-60.667 0 -112 14 -154 42c-42 28.667 -73.333 66.667 -94 114c-20 47.333 -30 99 -30 155h762zM275.001 617.999
c4 78.667 30.668 143.833 80.001 195.5s112.666 77.5 189.999 77.5c76 0 137.667 -26.667 185 -80c48 -52.667 74 -117 78 -193h-533zM232.002 1481l286 -289h169l-185 289h-270z" />
    <glyph glyph-name="eacute" unicode="&#xe9;" 
d="M1037 465c2.66699 18 4.00098 43.332 4.00098 75.999c0 96 -20.5 184.667 -61.5 266s-99.167 146 -174.5 194s-162 72 -260 72c-99.333 0 -187.333 -24.833 -264 -74.5s-135.5 -116.5 -176.5 -200.5s-61.5 -176 -61.5 -276c0 -107.333 20 -202.666 60 -285.999
s98.5 -148.333 175.5 -195s168.5 -70 274.5 -70c116 0 217 32 303 96c86.667 62.667 143 149.667 169 261h-218c-38.667 -116 -123.334 -174 -254.001 -174c-60.667 0 -112 14 -154 42c-42 28.667 -73.333 66.667 -94 114c-20 47.333 -30 99 -30 155h762zM275.001 617.999
c4 78.667 30.668 143.833 80.001 195.5s112.666 77.5 189.999 77.5c76 0 137.667 -26.667 185 -80c48 -52.667 74 -117 78 -193h-533zM379.002 1192h170l287 289h-277z" />
    <glyph glyph-name="ecircumflex" unicode="&#xea;" 
d="M1037 465c2.66699 18 4.00098 43.332 4.00098 75.999c0 96 -20.5 184.667 -61.5 266s-99.167 146 -174.5 194s-162 72 -260 72c-99.333 0 -187.333 -24.833 -264 -74.5s-135.5 -116.5 -176.5 -200.5s-61.5 -176 -61.5 -276c0 -107.333 20 -202.666 60 -285.999
s98.5 -148.333 175.5 -195s168.5 -70 274.5 -70c116 0 217 32 303 96c86.667 62.667 143 149.667 169 261h-218c-38.667 -116 -123.334 -174 -254.001 -174c-60.667 0 -112 14 -154 42c-42 28.667 -73.333 66.667 -94 114c-20 47.333 -30 99 -30 155h762zM275.001 617.999
c4 78.667 30.668 143.833 80.001 195.5s112.666 77.5 189.999 77.5c76 0 137.667 -26.667 185 -80c48 -52.667 74 -117 78 -193h-533zM535.002 1374l139 -182h189l-216 289h-223l-215 -289h182z" />
    <glyph glyph-name="edieresis" unicode="&#xeb;" 
d="M1037 465c2.66699 18 4.00098 43.332 4.00098 75.999c0 96 -20.5 184.667 -61.5 266s-99.167 146 -174.5 194s-162 72 -260 72c-99.333 0 -187.333 -24.833 -264 -74.5s-135.5 -116.5 -176.5 -200.5s-61.5 -176 -61.5 -276c0 -107.333 20 -202.666 60 -285.999
s98.5 -148.333 175.5 -195s168.5 -70 274.5 -70c116 0 217 32 303 96c86 62.667 142 149.667 168 261h-217c-38.667 -116 -123.334 -174 -254.001 -174c-60.667 0 -112 14 -154 42c-42 28.667 -73.333 66.667 -94 114c-20 47.333 -30 99 -30 155h762zM275.001 617.999
c4 78.667 30.668 143.833 80.001 195.5s112.666 77.5 189.999 77.5c76 0 137.667 -26.667 185 -80c47.333 -52.667 73 -117 77 -193h-532zM596.002 1430v-218h228v218h-228zM477.002 1212v218h-229v-218h229z" />
    <glyph glyph-name="igrave" unicode="&#xec;" horiz-adv-x="445" 
d="M335 0l-1 13v1034h-227v-13v-1034h228zM-73 1481l278 -289h168l-184 289h-262z" />
    <glyph glyph-name="iacute" unicode="&#xed;" horiz-adv-x="445" 
d="M334 0v13v1034h-228v-13v-1034h228zM65 1192h170l287 289h-274z" />
    <glyph glyph-name="icircumflex" unicode="&#xee;" horiz-adv-x="445" 
d="M334 0v13v1034h-228v-13v-1034h228zM219 1374l142 -182h188l-215 289h-223l-218 -289h185z" />
    <glyph glyph-name="idieresis" unicode="&#xef;" horiz-adv-x="445" 
d="M334 0v13v1034h-227v-13v-1034h227zM283 1430v-217h227v217h-227zM164 1213v217h-226v-217h226z" />
    <glyph glyph-name="eth" unicode="&#xf0;" horiz-adv-x="1164" 
d="M588 844c58 0 107.498 -15.167 148.498 -45.5s72 -70.666 93 -120.999s31.5 -104.833 31.5 -163.5c0 -61.333 -11.667 -119.5 -35 -174.5s-57.666 -99.667 -102.999 -134s-98.666 -51.5 -159.999 -51.5c-58.667 0 -107.667 15.333 -147 46s-68.333 71.5 -87 122.5
s-28 108.833 -28 173.5c0 65.333 9.33301 124.166 28 176.499s49.5 94 92.5 125s98.5 46.5 166.5 46.5zM376.998 1094l219 106c106.667 -92.667 178.334 -180 215.001 -262h-4c-87.333 58.667 -183.666 88 -288.999 88c-88.667 0 -167.334 -24 -236.001 -72
c-68 -48 -120.667 -111.333 -158 -190c-36.667 -78.667 -55 -163.334 -55 -254.001c0 -105.333 19 -198.666 57 -279.999s93 -144.666 165 -189.999c72.667 -46 158.667 -69 258 -69c96 0 179 17.333 249 52c70 33.333 126.667 79.833 170 139.5s75.166 128.5 95.499 206.5
s30.5 164 30.5 258c0 87.333 -12.333 171.166 -37 251.499s-60.334 155.5 -107.001 225.5s-103 133 -169 189l186 90l-96 98l-213 -102c-67.333 46.667 -135.666 80.667 -204.999 102l-156 -123c16.667 -4.66699 43.667 -14.667 81 -30l91 -35l-191 -97z" />
    <glyph glyph-name="ntilde" unicode="&#xf1;" horiz-adv-x="1118" 
d="M107 0l-0.000976562 1047h215l4 -158c32.667 58.667 77.334 104 134.001 136c56 32.667 118.333 49 187 49c114.667 0 204.834 -30.333 270.501 -91s98.5 -149.334 98.5 -266.001v-717h-227v658c-2 82 -20 141.333 -54 178s-85.667 55 -155 55
c-72.667 0 -131.834 -25.833 -177.501 -77.5s-68.5 -116.5 -68.5 -194.5v-619h-227zM802.999 1450h110.999c-30 -158.667 -104.667 -238 -224 -238c-26 0 -56.333 6.66699 -91 20l-103.5 40.5c-34.333 13.667 -64.833 20.5 -91.5 20.5c-22.667 0 -42 -9.66699 -58 -29
s-24 -39.333 -24 -60h-117c4.66699 36.667 16.334 72.667 35.001 108c18 36 41.667 65.333 71 88c30 22.667 63.667 34 101 34c17.333 0 37.333 -3.33301 60 -10s50 -16 82 -28c32 -11.333 58.667 -20 80 -26c22 -6.66699 43 -10 63 -10c52.667 0 88 30 106 90z" />
    <glyph glyph-name="ograve" unicode="&#xf2;" horiz-adv-x="1164" 
d="M580 154c-61.333 0 -114.333 17.333 -159 52s-78.334 80.334 -101.001 137.001s-34 116.334 -34 179.001c0 63.333 11.333 123.333 34 180s56.167 102.334 100.5 137.001s97.5 52 159.5 52c63.333 0 117.333 -17.333 162 -52s78.334 -80.334 101.001 -137.001
s34 -116.667 34 -180c0 -62.667 -11.333 -122.334 -34 -179.001s-56.5 -102.334 -101.5 -137.001s-98.833 -52 -161.5 -52zM580 -29c108.667 0 203.002 23.499 283.002 70.499s141.167 112.167 183.5 195.5s63.5 178.333 63.5 285c0 108 -21 203.5 -63 286.5
s-103 147.833 -183 194.5s-174.667 70 -284 70c-108.667 0 -202.334 -23.333 -281.001 -70s-138.334 -111.667 -179.001 -195c-42 -83.333 -63 -178.666 -63 -285.999c0 -106 21 -200.667 63 -284c40.667 -84 100.5 -149.5 179.5 -196.5s172.5 -70.5 280.5 -70.5z
M282.002 1481l281 -289h170l-184 289h-267z" />
    <glyph glyph-name="oacute" unicode="&#xf3;" horiz-adv-x="1164" 
d="M580 154c-61.333 0 -114.333 17.333 -159 52s-78.334 80.334 -101.001 137.001s-34 116.334 -34 179.001c0 63.333 11.333 123.333 34 180s56.167 102.334 100.5 137.001s97.5 52 159.5 52c63.333 0 117.333 -17.333 162 -52s78.334 -80.334 101.001 -137.001
s34 -116.667 34 -180c0 -62.667 -11.333 -122.334 -34 -179.001s-56.5 -102.334 -101.5 -137.001s-98.833 -52 -161.5 -52zM580 -29c108.667 0 203.002 23.499 283.002 70.499s141.167 112.167 183.5 195.5s63.5 178.333 63.5 285c0 108 -21 203.5 -63 286.5
s-103 147.833 -183 194.5s-174.667 70 -284 70c-108.667 0 -202.334 -23.333 -281.001 -70s-138.334 -111.667 -179.001 -195c-42 -83.333 -63 -178.666 -63 -285.999c0 -106 21 -200.667 63 -284c40.667 -84 100.5 -149.5 179.5 -196.5s172.5 -70.5 280.5 -70.5z
M432.002 1192h168l281 289h-268z" />
    <glyph glyph-name="ocircumflex" unicode="&#xf4;" horiz-adv-x="1164" 
d="M580 154c-61.333 0 -114.333 17.333 -159 52s-78.334 80.334 -101.001 137.001s-34 116.334 -34 179.001c0 63.333 11.333 123.333 34 180s56.167 102.334 100.5 137.001s97.5 52 159.5 52c63.333 0 117.333 -17.333 162 -52s78.334 -80.334 101.001 -137.001
s34 -116.667 34 -180c0 -62.667 -11.333 -122.334 -34 -179.001s-56.5 -102.334 -101.5 -137.001s-98.833 -52 -161.5 -52zM580 -29c108.667 0 203.002 23.499 283.002 70.499s141.167 112.167 183.5 195.5s63.5 178.333 63.5 285c0 108 -21 203.5 -63 286.5
s-103 147.833 -183 194.5s-174.667 70 -284 70c-108.667 0 -202.334 -23.333 -281.001 -70s-138.334 -111.667 -179.001 -195c-42 -83.333 -63 -178.666 -63 -285.999c0 -106 21 -200.667 63 -284c40.667 -84 100.5 -149.5 179.5 -196.5s172.5 -70.5 280.5 -70.5z
M580.002 1374l141 -182h189l-215 289h-226l-211 -289h186z" />
    <glyph glyph-name="otilde" unicode="&#xf5;" horiz-adv-x="1164" 
d="M580 154c-61.333 0 -114.333 17.333 -159 52s-78.334 80.334 -101.001 137.001s-34 116.334 -34 179.001c0 63.333 11.333 123.333 34 180s56.167 102.334 100.5 137.001s97.5 52 159.5 52c63.333 0 117.333 -17.333 162 -52s78.334 -80.334 101.001 -137.001
s34 -116.667 34 -180c0 -62.667 -11.333 -122.334 -34 -179.001s-56.5 -102.334 -101.5 -137.001s-98.833 -52 -161.5 -52zM580 -29c108.667 0 203.002 23.499 283.002 70.499s141.167 112.167 183.5 195.5s63.5 178.333 63.5 285c0 108 -21 203.5 -63 286.5
s-103 147.833 -183 194.5s-174.667 70 -284 70c-108.667 0 -202.334 -23.333 -281.001 -70s-138.334 -111.667 -179.001 -195c-42 -83.333 -63 -178.666 -63 -285.999c0 -106 21 -200.667 63 -284c40.667 -84 100.5 -149.5 179.5 -196.5s172.5 -70.5 280.5 -70.5z
M824.002 1450c-13.333 -60 -47.0029 -89.999 -101.003 -89.999c-19.333 0 -40.666 3.16699 -63.999 9.5s-50.833 15.333 -82.5 27s-58.167 20.834 -79.5 27.501s-40 10 -56 10c-58.667 0 -106.667 -23.167 -144 -69.5s-60.666 -99.833 -69.999 -160.5h115
c0 20.667 8.66699 40.667 26 60s37.333 29 60 29c22 0 43.5 -3.33301 64.5 -10s47.167 -16.834 78.5 -30.501s57.333 -23.667 78 -30s42 -9.5 64 -9.5c64 0 115.333 22.667 154 68s62.334 101.666 71.001 168.999h-114z" />
    <glyph glyph-name="odieresis" unicode="&#xf6;" horiz-adv-x="1164" 
d="M580 154c-61.333 0 -114.333 17.333 -159 52s-78.167 80.334 -100.5 137.001s-33.5 116.334 -33.5 179.001c0 63.333 11.167 123.333 33.5 180s55.666 102.334 99.999 137.001s97.5 52 159.5 52c63.333 0 117.333 -17.333 162 -52s78.334 -80.334 101.001 -137.001
s34 -116.667 34 -180c0 -62.667 -11.333 -122.334 -34 -179.001s-56.5 -102.334 -101.5 -137.001s-98.833 -52 -161.5 -52zM580 -29c108.667 0 203.001 23.499 283.001 70.499s141.167 112.167 183.5 195.5s63.5 178.333 63.5 285c0 108 -21 203.5 -63 286.5
s-103 147.833 -183 194.5s-174.667 70 -284 70c-108.667 0 -202.334 -23.333 -281.001 -70s-138.5 -111.667 -179.5 -195s-61.5 -178.666 -61.5 -285.999c0 -106 20.5 -200.833 61.5 -284.5s101 -149 180 -196s172.5 -70.5 280.5 -70.5zM643.001 1430v-218h228v218h-228z
M526.001 1212v218h-229v-218h229z" />
    <glyph glyph-name="divide" unicode="&#xf7;" horiz-adv-x="1164" 
d="M1090 408v211h-1017v-211h1017zM580 785c44 0 78.498 13.833 103.498 41.5s37.5 60.834 37.5 99.501c0 39.333 -12.667 73.666 -38 102.999s-59.666 44 -102.999 44s-77 -14.333 -101 -43s-36 -62.667 -36 -102c0 -38 12 -71.333 36 -100
c24.667 -28.667 58.334 -43 101.001 -43zM579.998 -47c43.333 0 77.333 14.333 102 43s37 62.334 37 101.001c0 37.333 -12.333 70.166 -37 98.499s-58.667 42.5 -102 42.5s-77 -14.167 -101 -42.5s-36 -61.166 -36 -98.499c0 -38.667 12 -72.334 36 -101.001
s57.667 -43 101 -43z" />
    <glyph glyph-name="oslash" unicode="&#xf8;" horiz-adv-x="1164" 
d="M832 731c30 -62.667 45.001 -133 45.001 -211c0 -62 -11 -121.333 -33 -178s-55.5 -102.167 -100.5 -136.5s-99.5 -51.5 -163.5 -51.5c-72.667 0 -138.334 28 -197.001 84zM119.001 -56l125.001 143.999c88 -78 200 -117 336 -117c108.667 0 203 23.5 283 70.5
s141.167 112.167 183.5 195.5s63.5 178.333 63.5 285c0 145.333 -42.333 272.333 -127 381l135 144l-67 59l-125 -139c-90.667 70.667 -206 106 -346 106c-108.667 0 -202.334 -23.333 -281.001 -70s-138.667 -111.667 -180 -195s-62 -178.666 -62 -285.999
c0 -150 40.667 -275.333 122 -376l-129 -146zM334.002 311.999c-32 62 -48.001 131.333 -48.001 208c0 64.667 10.833 125.167 32.5 181.5s54.834 102 99.501 137s98.667 52.5 162 52.5c82 0 150 -28 204 -84z" />
    <glyph glyph-name="ugrave" unicode="&#xf9;" horiz-adv-x="1118" 
d="M1016 1047h-226.999v-606c0 -87.333 -20.667 -157 -62 -209c-40.667 -52 -106 -78 -196 -78c-66 0 -115.333 19.167 -148 57.5s-49 102.5 -49 192.5v643h-227v-666c0 -68.667 7.33301 -128.167 22 -178.5s37.334 -92.833 68.001 -127.5c31.333 -34 71.333 -60 120 -78
c49.333 -17.333 107 -26 173 -26c59.333 0 116.666 16.167 171.999 48.5s97.666 74.5 126.999 126.5h4v-146h223v13v1034zM262.001 1481l283 -289h166l-180 289h-269z" />
    <glyph glyph-name="uacute" unicode="&#xfa;" horiz-adv-x="1118" 
d="M1016 1047h-226.999v-606c0 -87.333 -20.667 -157 -62 -209c-40.667 -52 -106 -78 -196 -78c-66 0 -115.333 19.167 -148 57.5s-49 102.5 -49 192.5v643h-227v-666c0 -68.667 7.33301 -128.167 22 -178.5s37.334 -92.833 68.001 -127.5c31.333 -34 71.333 -60 120 -78
c49.333 -17.333 107 -26 173 -26c59.333 0 116.666 16.167 171.999 48.5s97.666 74.5 126.999 126.5h4v-146h223v13v1034zM408.001 1192h164l286 289h-266z" />
    <glyph glyph-name="ucircumflex" unicode="&#xfb;" horiz-adv-x="1118" 
d="M1016 1047h-226.999v-606c0 -87.333 -20.667 -157 -62 -209c-40.667 -52 -106 -78 -196 -78c-66 0 -115.333 19.333 -148 58s-49 102.667 -49 192v643h-227v-666c0 -68.667 7.33301 -128.167 22 -178.5s37.334 -92.833 68.001 -127.5c31.333 -34 71.333 -60 120 -78
c49.333 -17.333 107 -26 173 -26c59.333 0 116.666 16.167 171.999 48.5s97.666 74.5 126.999 126.5h4v-146h223v13v1034zM555.001 1374l148 -182h182l-215 289h-217l-221 -289h184z" />
    <glyph glyph-name="udieresis" unicode="&#xfc;" horiz-adv-x="1118" 
d="M1016 1047h-226.999v-606c0 -87.333 -20.667 -157 -62 -209c-40.667 -52 -106 -78 -196 -78c-66 0 -115.333 19.333 -148 58s-49 102.667 -49 192v643h-227v-666c0 -68.667 7.33301 -128.167 22 -178.5s37.334 -92.833 68.001 -127.5c31.333 -34 71.333 -60 120 -78
c49.333 -17.333 107 -26 173 -26c59.333 0 116.666 16.167 171.999 48.5s97.666 74.5 126.999 126.5h4v-146h223v13v1034zM621.001 1430v-217h227v217h-227zM502.001 1213v217h-227v-217h227z" />
    <glyph glyph-name="yacute" unicode="&#xfd;" horiz-adv-x="1028" 
d="M391 4l-22.998 -80.002c-28.667 -94 -89 -141 -181 -141c-22 0 -50.333 3.33301 -85 10v-193c49.333 -8 101.333 -12 156 -12c74.667 0 134.167 15.333 178.5 46s77.166 65.834 98.499 105.501s52.666 107.834 93.999 204.501l23 69l376 1034h-235l-266 -781h-5l-268 781
h-255l4 -8zM364.002 1192h166l285 289h-270z" />
    <glyph glyph-name="thorn" unicode="&#xfe;" horiz-adv-x="1204" 
d="M118 -383h228v516h4c35.333 -54.667 84 -95 146 -121c62.667 -27.333 130.334 -41 203.001 -41c96.667 0 178.667 25.167 246 75.5s117.666 116.833 150.999 199.5c32.667 83.333 49 174 49 272c0 104 -18.167 198.167 -54.5 282.5s-91 150.833 -164 199.5
s-162.5 73 -268.5 73c-60.667 0 -119.667 -14.5 -177 -43.5s-101 -68.167 -131 -117.5h-4v538h-228v-801v-1032zM914 522c0 -65.333 -9.66797 -125.667 -29.001 -181c-18.667 -55.333 -49.334 -100.333 -92.001 -135s-96.667 -52 -162 -52
c-62.667 0 -116.667 17.167 -162 51.5s-79.666 79.833 -102.999 136.5s-35 116.667 -35 180c0 64 11.5 124.333 34.5 181s57.5 102.334 103.5 137.001c44.667 34 98.667 51 162 51c60 0 111.333 -17 154 -51s74.834 -79.333 96.501 -136s32.5 -117.334 32.5 -182.001z" />
    <glyph glyph-name="ydieresis" unicode="&#xff;" horiz-adv-x="1028" 
d="M391 4l-21.999 -80.002c-29.333 -94 -90 -141 -182 -141c-22 0 -50 3.33301 -84 10v-193c48.667 -8 100.334 -12 155.001 -12c74.667 0 134.167 15.333 178.5 46s77.166 65.834 98.499 105.501s52.666 107.834 93.999 204.501l23 69l376 1034h-235l-266 -781h-5l-268 781
h-254l4 -8zM572.001 1430v-217h231v217h-231zM459.001 1213v217h-231v-217h231z" />
    <glyph glyph-name="OE" unicode="&#x152;" horiz-adv-x="2145" 
d="M1081 445c0 -42 -13.498 -84.333 -40.498 -127s-66.833 -78 -119.5 -106c-52 -28 -113 -42 -183 -42c-91.333 0 -169.833 26.167 -235.5 78.5s-115.167 120.833 -148.5 205.5s-50 174.334 -50 269.001c0 95.333 16.667 185.333 50 270s82.833 153 148.5 205
s144.167 78 235.5 78c73.333 0 136.166 -13.5 188.499 -40.5s91.166 -63.167 116.499 -108.5c25.333 -44.667 38 -93.334 38 -146.001v-536zM1321 1227h752.002v223h-979v-121c-47.333 56 -100.333 95.333 -159 118s-127.334 34 -206.001 34c-104 0 -198 -20 -282 -60
s-155.667 -95.667 -215 -167c-58.667 -71.333 -103.334 -153 -134.001 -245s-46 -189.333 -46 -292c0 -100 14.833 -195.333 44.5 -286s73.167 -171.167 130.5 -241.5s127.333 -125 210 -164s174.667 -58.5 276 -58.5c160 0 287 54 381 162v-129h991v217h-764v424h690v207
h-690v379z" />
    <glyph glyph-name="oe" unicode="&#x153;" horiz-adv-x="1792" 
d="M1759 465c0 87.333 -8.33887 167.165 -25.0059 239.498s-43.667 136.333 -81 192s-86.666 99 -147.999 130s-135.666 46.5 -222.999 46.5c-170.667 0 -293.334 -58 -368.001 -174c-60 116 -180.333 174 -361 174c-102 0 -191 -24.167 -267 -72.5s-134 -114 -174 -197
s-60 -175.167 -60 -276.5c0 -159.333 41.833 -291.833 125.5 -397.5s202.834 -158.5 357.501 -158.5c180 0 302 63.667 366 191c66.667 -127.333 192.334 -191 377.001 -191c78.667 0 149.834 14.167 213.501 42.5s117.334 69.333 161.001 123s74.5 118.834 92.5 195.501
h-227c-9.33301 -56.667 -37.666 -100.5 -84.999 -131.5s-100.333 -46.5 -159 -46.5c-87.333 0 -154.333 29 -201 87c-47.333 58.667 -72 133.334 -74 224.001h760zM1261.99 890.999c86 0 151.167 -23.999 195.5 -71.999s68.5 -115 72.5 -201h-531
c4 75.333 30.5 139.666 79.5 192.999s110.167 80 183.5 80zM548.994 891c91.333 0 158.5 -35.834 201.5 -107.501s64.5 -155.834 64.5 -252.501c0 -251.333 -88.667 -377 -266 -377c-94.667 0 -162 36 -202 108c-40.667 72.667 -61 162.334 -61 269.001
c0 96.667 21.667 180.834 65 252.501s109.333 107.5 198 107.5z" />
    <glyph glyph-name="florin" unicode="&#x192;" 
d="M209 713h178l-147 -760c-16.667 -75.333 -67.334 -113 -152.001 -113c-23.333 0 -51.333 3.33301 -84 10l-29 -182c46.667 -5.33301 80.334 -8 101.001 -8c100 0 187 23 261 69s120.667 117.667 140 215l148 769h203l30 176h-204l49 262c18 98.667 78 148 180 148
c23.333 0 47.333 -2 72 -6l32 182c-43.333 2.66699 -76 4 -98 4c-104 0 -191.667 -18.333 -263 -55c-71.333 -36 -118 -101.667 -140 -197l-62 -338h-189z" />
    <glyph glyph-name="circumflex" unicode="&#x2c6;" horiz-adv-x="445" 
d="M219 1374l142 -182h188l-215 289h-223l-218 -289h185z" />
    <glyph glyph-name="tilde" unicode="&#x2dc;" horiz-adv-x="445" 
d="M461 1450c-10.667 -60 -41.3379 -89.998 -92.0049 -89.998c-21.333 0 -65.666 11.667 -132.999 35c-47.333 20.667 -91.666 31 -132.999 31c-60 0 -111.667 -19.333 -155 -58s-70.333 -93.334 -81 -164.001h112c0 19.333 8.83301 39 26.5 59s36.5 30 56.5 30
c22.667 0 44.834 -3.33301 66.501 -10s48.5 -16.834 80.5 -30.501s58.333 -23.667 79 -30s42.334 -9.5 65.001 -9.5c64.667 0 115 22 151 66c36.667 44 59.334 101 68.001 171h-111z" />
    <glyph glyph-name="emdash" unicode="&#x2013;" horiz-adv-x="979" 
d="M-13 445h1004v217h-1004v-217z" />
    <glyph glyph-name="endash" unicode="&#x2014;" horiz-adv-x="1966" 
d="M-21 445h982h1026v217h-983h-1025v-217z" />
    <glyph glyph-name="quoteleft" unicode="&#x2018;" horiz-adv-x="531" 
d="M391 1450c-74 -24 -134.167 -61.668 -180.5 -113.001s-69.5 -114.666 -69.5 -189.999v-270h250v270h-120c0 44 10.333 82.333 31 115c21.333 32.667 51 55 89 67v121z" />
    <glyph glyph-name="quoteright" unicode="&#x2019;" horiz-adv-x="531" 
d="M141 877c76.667 9.33301 137.5 41.167 182.5 95.5s67.5 120.833 67.5 199.5v278h-250v-278h125c0 -108 -41.667 -167.333 -125 -178v-117z" />
    <glyph glyph-name="quotedblleft" unicode="&#x201c;" horiz-adv-x="844" 
d="M346 1450c-73.333 -24 -133.001 -61.6689 -179.001 -113.002c-45.333 -51.333 -68 -114.666 -68 -189.999v-270h247v270h-123c0 44.667 10.833 83.334 32.5 116.001s51.834 54.667 90.501 66v121zM745.999 1450c-74 -24 -134.667 -62.001 -182 -114.001
c-46.667 -51.333 -70 -114.333 -70 -189v-270h252v270h-121c0 44.667 10.333 83.334 31 116.001s50.667 54.667 90 66v121z" />
    <glyph glyph-name="quotedblright" unicode="&#x201d;" horiz-adv-x="844" 
d="M99 877c70.667 19.333 129.5 55 176.5 107s70.5 114.667 70.5 188v278h-247v-278h116c0 -90 -38.667 -149.333 -116 -178v-117zM494 877c74.667 19.333 135.333 54.666 182 105.999c46.667 52 70 115 70 189v278h-252v-278h127c0 -89.333 -42.333 -148.666 -127 -177.999
v-117z" />
    <glyph glyph-name="quotedblbase" unicode="&#x201e;" horiz-adv-x="844" 
d="M99 -297c70.667 20.667 129.5 57 176.5 109s70.5 114.667 70.5 188v275h-247v-275h116c0 -90 -38.667 -149.333 -116 -178v-119zM494 -297c74.667 20 135.333 55.999 182 107.999s70 115 70 189v275h-252v-275h127c0 -89.333 -42.333 -148.666 -127 -177.999v-119z" />
    <glyph glyph-name="dagger" unicode="&#x2020;" 
d="M416 -324h231v146v1034h385v191h-385v403h-231v-403h-380v-191h380v-145v-1035z" />
    <glyph glyph-name="daggerdbl" unicode="&#x2021;" 
d="M416 -324h231v396h385v199h-385v585h385v191h-385v403h-231v-403h-380v-191h379v-585h-379v-199h380v-396z" />
    <glyph glyph-name="bullet" unicode="&#x2022;" horiz-adv-x="979" 
d="M132 719c0 -64 16.335 -123.668 49.002 -179.001c31.333 -55.333 74.5 -99 129.5 -131s114.833 -48 179.5 -48c63.333 0 122.666 16 177.999 48c55.333 32.667 99.166 76.5 131.499 131.5s48.5 114.5 48.5 178.5c0 66 -16.167 126.833 -48.5 182.5s-76 99.667 -131 132
s-114.5 48.5 -178.5 48.5c-65.333 0 -125.333 -16.167 -180 -48.5s-97.667 -76.166 -129 -131.499c-32.667 -55.333 -49 -116.333 -49 -183z" />
    <glyph glyph-name="ellipsis" unicode="&#x2026;" horiz-adv-x="1966" 
d="M172 0h282v275h-282v-275zM844 0h279v275h-279v-275zM1510 0h282v275h-282v-275z" />
    <glyph glyph-name="perthousand" unicode="&#x2030;" horiz-adv-x="2282" 
d="M453 1450c-64 0 -119.001 -16.668 -165.001 -50.001c-45.333 -33.333 -79.666 -77.333 -102.999 -132s-35 -112 -35 -172c0 -61.333 11.333 -118.333 34 -171c23.333 -53.333 58 -96.166 104 -128.499s101 -48.5 165 -48.5c63.333 0 117.666 16 162.999 48
c45.333 32.667 79.333 75.667 102 129c22.667 54 34 111 34 171s-11.667 117.333 -35 172s-57.666 98.667 -102.999 132s-99 50 -161 50zM452.999 1325c82 0 123 -82.667 123 -248c0 -136.667 -41 -205 -123 -205c-87.333 0 -131 68.333 -131 205
c0 165.333 43.667 248 131 248zM317.999 -47.001h143l252 479l553 1039h-148l-256 -486zM1145 -29.001c64 0 118.669 16.332 164.002 48.999s79.333 75.334 102 128.001c22 53.333 33 109.333 33 168c0 60 -11.333 116.833 -34 170.5s-56.334 96.834 -101.001 129.501
c-45.333 33.333 -100 50 -164 50c-64.667 0 -120 -16.667 -166 -50c-46 -32.667 -80.667 -76 -104 -130c-23.333 -53.333 -35 -110 -35 -170c0 -58.667 11.667 -114.667 35 -168c23.333 -52.667 58.166 -95.334 104.499 -128.001s101.5 -49 165.5 -49zM1145 96.998
c-86 0 -129 69.333 -129 208c0 158.667 43 238 129 238s129 -79.333 129 -238c0 -138.667 -43 -208 -129 -208zM1827 -29.002c63.333 0 117.834 16.3301 163.501 48.9971s80 75.334 103 128.001s34.5 108.667 34.5 168c0 60 -11.333 116.833 -34 170.5
s-56.667 96.834 -102 129.501c-46 33.333 -101 50 -165 50c-63.333 0 -117.5 -16.5 -162.5 -49.5s-79 -76.333 -102 -130s-34.5 -110.5 -34.5 -170.5c0 -58.667 11.333 -114.667 34 -168s56.667 -96.166 102 -128.499s99.666 -48.5 162.999 -48.5zM1827 96.9951
c-86 0 -129 69.333 -129 208c0 158.667 43 238 129 238c87.333 0 131 -79.333 131 -238c0 -138.667 -43.667 -208 -131 -208z" />
    <glyph glyph-name="guilsinglleft" unicode="&#x2039;" horiz-adv-x="490" 
d="M396 187v209l-187 153l187 158v205l-306 -246v-225z" />
    <glyph glyph-name="guilsinglright" unicode="&#x203a;" horiz-adv-x="490" 
d="M99 912v-205l188 -158l-188 -153v-209l305 254v225z" />
    <glyph glyph-name="trademark" unicode="&#x2122;" horiz-adv-x="1966" 
d="M776 1450h-665v-135h250v-700h161v700h254v135zM1176 1450h-230v-835h152v649h4l244 -649h112l248 649h4v-649h148v835h-225l-230 -594z" />
    <glyph glyph-name=".null" horiz-adv-x="0" 
 />
    <glyph glyph-name="nonmarkingreturn" horiz-adv-x="0" 
 />
    </font>
</defs>
</svg>
