<?xml version="1.0" standalone="no"?>
<!DOCTYPE svg PUBLIC "-//W3C//DTD SVG 1.1//EN" "http://www.w3.org/Graphics/SVG/1.1/DTD/svg11.dtd" >
<svg xmlns="http://www.w3.org/2000/svg" xmlns:xlink="http://www.w3.org/1999/xlink" version="1.1">
<metadata></metadata>
<defs>
<font id="georgiabold" horiz-adv-x="1440" >
<font-face units-per-em="2048" ascent="1639" descent="-409" />
<missing-glyph horiz-adv-x="520" />
<glyph horiz-adv-x="0" />
<glyph horiz-adv-x="682" />
<glyph unicode=" "  horiz-adv-x="520" />
<glyph unicode="&#x09;" horiz-adv-x="520" />
<glyph unicode="&#xa0;" horiz-adv-x="520" />
<glyph unicode="!" horiz-adv-x="771" d="M191 1261q0 77 57 131.5t137 54.5q79 0 137 -54.5t58 -131.5q0 -41 -14.5 -108.5t-36.5 -158.5q-21 -86 -48 -214.5t-57 -317.5h-77q-30 191 -57 318t-48 213q-19 79 -35 154.5t-16 113.5zM193 156q0 76 57.5 131.5t135.5 55.5q77 0 134.5 -55.5t57.5 -131.5 t-57.5 -130.5t-134.5 -54.5q-78 0 -135.5 54.5t-57.5 130.5z" />
<glyph unicode="&#x22;" horiz-adv-x="1044" d="M120 1369q0 64 43 112t123 48q78 0 121.5 -48t43.5 -112q0 -55 -48.5 -213.5t-82.5 -332.5h-69q-35 174 -83 332.5t-48 213.5zM593 1369q0 64 43 112t123 48q78 0 121.5 -48t43.5 -112q0 -55 -48.5 -213.5t-82.5 -332.5h-69q-35 174 -83 332.5t-48 213.5z" />
<glyph unicode="#" d="M155 331v160h262l79 257h-281v160h329l104 341h149l-104 -341h230l104 341h149l-104 -341h213v-160h-262l-78 -257h280v-160h-328l-101 -331h-149l101 331h-230l-101 -331h-149l101 331h-214zM565 489h232l80 261h-233z" />
<glyph unicode="$" horiz-adv-x="1312" d="M106 293q0 71 43 120t119 49q79 0 125.5 -41.5t46.5 -112.5q0 -51 -17 -102.5t-28 -80.5q27 -14 89.5 -36t130.5 -22v449q-14 2 -27 3.5t-30 3.5q-192 18 -303 116t-111 256q0 70 26 137t80 125q55 60 145.5 100.5t219.5 48.5v218h99v-218q205 -8 332 -85.5t127 -191.5 q0 -68 -41.5 -115.5t-114.5 -47.5q-76 0 -120 40t-44 108q0 47 15.5 92t27.5 81q-27 14 -75.5 23t-106.5 11v-409q15 -1 38 -5t40 -6q205 -30 310 -130t105 -260q0 -186 -142 -300.5t-351 -128.5v-281h-99v281q-211 4 -360 96.5t-149 214.5zM380 1022q0 -89 49.5 -135 t143.5 -60q15 -2 22.5 -3.5t19.5 -2.5v400q-114 -12 -174.5 -67t-60.5 -132zM714 67q137 13 198 75.5t61 150.5q0 83 -49 134.5t-155 71.5q-11 2 -26 4t-29 4v-440z" />
<glyph unicode="%" horiz-adv-x="1801" d="M91 1086q0 167 112 270.5t277 103.5t277.5 -103.5t112.5 -270.5t-112.5 -270.5t-276.5 -103.5q-166 0 -278 103.5t-112 270.5zM228 0l1180 1428h166l-1183 -1428h-163zM356 1094q0 -144 26.5 -226.5t100.5 -82.5q64 0 93 77.5t29 221.5q0 138 -27 220.5t-99 82.5 q-65 0 -94 -77.5t-29 -215.5zM931 339q0 167 112 270.5t277 103.5t277.5 -103.5t112.5 -270.5t-112.5 -270.5t-276.5 -103.5q-166 0 -278 103.5t-112 270.5zM1196 347q0 -144 26.5 -226.5t100.5 -82.5q64 0 93 77.5t29 221.5q0 138 -27 220.5t-99 82.5q-65 0 -94 -77.5 t-29 -215.5z" />
<glyph unicode="&#x26;" horiz-adv-x="1637" d="M69 329q0 81 21.5 139t69.5 116q46 56 114 100.5t153 83.5q-90 114 -125.5 194t-35.5 164q0 144 120 237.5t287 93.5q156 0 253 -74t97 -196q0 -106 -58 -189.5t-193 -163.5q109 -140 168.5 -210.5t158.5 -185.5q63 93 94.5 171t31.5 131q0 30 -44.5 48.5t-125.5 34.5v76 h559v-76q-91 -8 -134.5 -22t-85.5 -57q-18 -18 -44.5 -63.5t-50.5 -87.5q-29 -51 -62 -107t-80 -117q92 -108 151.5 -161.5t97.5 -73.5q43 -23 109 -36.5t131 -17.5v-80h-588q-24 27 -62 70.5t-65 77.5q-106 -98 -211.5 -140.5t-224.5 -42.5q-187 0 -306.5 101t-119.5 263z M375 442q0 -133 85 -217t216 -84q61 0 106 15.5t96 56.5q-84 101 -195.5 235t-207.5 255q-53 -52 -76.5 -121.5t-23.5 -139.5zM573 1211q0 -58 37 -131.5t114 -178.5q76 53 111.5 123.5t35.5 147.5q0 88 -42.5 138.5t-110.5 50.5q-65 0 -105 -41.5t-40 -108.5z" />
<glyph unicode="'" horiz-adv-x="551" d="M110 1369q0 64 43 112t123 48q78 0 121.5 -48t43.5 -112q0 -55 -48.5 -213.5t-82.5 -332.5h-69q-35 174 -83 332.5t-48 213.5z" />
<glyph unicode="(" horiz-adv-x="915" d="M115 602q0 225 63 391.5t167 280.5q103 113 234.5 176.5t268.5 81.5v-90q-189 -35 -290 -243.5t-101 -596.5t101 -596.5t290 -243.5v-90q-137 18 -268.5 81t-234.5 177q-104 114 -167 280.5t-63 391.5z" />
<glyph unicode=")" horiz-adv-x="915" d="M68 -238q189 35 290 243.5t101 596.5t-101 596.5t-290 243.5v90q137 -18 268.5 -81.5t234.5 -176.5q104 -114 167 -280.5t63 -391.5t-63 -391.5t-167 -280.5q-103 -113 -234.5 -176.5t-268.5 -81.5v90z" />
<glyph unicode="*" horiz-adv-x="987" d="M81 1083q0 41 25.5 63.5t64.5 22.5q31 0 99.5 -20.5t170.5 -32.5q-66 84 -132 147.5t-66 109.5q0 33 29 57.5t61 24.5q23 0 41.5 -12t32.5 -35q12 -22 33 -101t54 -160q33 82 54.5 161t32.5 100q12 21 31.5 34t42.5 13q33 0 61.5 -23.5t28.5 -58.5q0 -46 -62.5 -107.5 t-134.5 -149.5q100 13 171.5 33t97.5 20q39 0 64.5 -22.5t25.5 -63.5q0 -45 -25.5 -65.5t-64.5 -20.5q-25 0 -103.5 22t-166.5 33q58 -76 128 -143t70 -114q0 -33 -29 -57.5t-61 -24.5q-22 0 -41 12.5t-33 35.5q-12 22 -32.5 100t-54.5 160q-33 -78 -55 -160.5t-32 -99.5 q-16 -25 -32.5 -36.5t-41.5 -11.5q-33 0 -61.5 23.5t-28.5 58.5q0 47 70 114t128 143q-84 -10 -165 -32.5t-105 -22.5q-39 0 -64.5 20.5t-25.5 65.5z" />
<glyph unicode="+" d="M164 493v163h473v473h165v-473h473v-163h-473v-473h-165v473h-473z" />
<glyph unicode="," horiz-adv-x="672" d="M137 173q0 64 50 115.5t123 51.5q112 0 170.5 -76.5t58.5 -210.5q0 -122 -102 -249.5t-245 -192.5l-44 71q49 26 92.5 56t77.5 70q35 42 55.5 85.5t25.5 106.5h-56q-102 0 -154 46t-52 127z" />
<glyph unicode="-" horiz-adv-x="776" d="M85 435v221h606v-221h-606z" />
<glyph unicode="." horiz-adv-x="672" d="M139 166q0 80 58.5 138.5t139.5 58.5q80 0 138.5 -59t58.5 -138t-58.5 -137t-138.5 -58q-81 0 -139.5 57.5t-58.5 137.5z" />
<glyph unicode="/" horiz-adv-x="966" d="M27 -424l689 1947h182l-691 -1947h-180z" />
<glyph unicode="0" horiz-adv-x="1436" d="M103 537q0 117 37.5 217t115.5 181q76 79 193 126.5t269 47.5q157 0 274 -49t192 -128q76 -80 112.5 -182.5t36.5 -212.5q0 -131 -45.5 -236.5t-124.5 -178.5q-83 -76 -193 -116t-253 -40q-151 0 -266.5 47t-192.5 124q-76 76 -115.5 179t-39.5 221zM480 537 q0 -111 10.5 -189t38.5 -150q25 -65 72 -105t116 -40q64 0 111 36t74 98q29 67 41.5 149.5t12.5 200.5q0 106 -11.5 191t-38.5 151q-28 68 -74 105t-113 37q-68 0 -114 -36.5t-75 -103.5q-26 -61 -38 -149.5t-12 -194.5z" />
<glyph unicode="1" horiz-adv-x="1003" d="M117 836v95h55q87 0 150.5 19t105.5 46q43 28 70.5 58t43.5 53h176q-3 -65 -6 -152t-3 -156v-586q0 -36 15.5 -62.5t44.5 -40.5q26 -12 87 -22t90 -12v-76h-825v76q30 2 95.5 10t89.5 16q30 10 47 34t17 66v634h-253z" />
<glyph unicode="2" horiz-adv-x="1283" d="M110 0v181q71 72 155.5 131.5t171.5 105.5q93 49 156 87.5t99 80.5q36 39 51.5 85t15.5 103q0 127 -60 185t-159 58q-31 0 -58.5 -4.5t-57.5 -16.5q15 -45 29 -93t14 -107q0 -71 -51 -113t-130 -42q-75 0 -119.5 49t-44.5 119q0 122 142 211t346 89q236 0 381.5 -81 t145.5 -261q0 -93 -38.5 -150t-113.5 -100q-67 -39 -148.5 -64t-174.5 -48q-99 -25 -172.5 -53t-130.5 -67v-11h835v-274h-1084z" />
<glyph unicode="3" horiz-adv-x="1279" d="M52 -70q0 71 45.5 120t121.5 49q79 0 129.5 -42.5t50.5 -113.5q0 -49 -17.5 -109.5t-27.5 -89.5q22 -10 57 -15.5t82 -5.5q58 0 113.5 19t96.5 62q43 45 66.5 105.5t23.5 160.5q0 57 -10.5 108t-38.5 89t-76.5 59.5t-123.5 21.5h-127v121h90q126 0 182.5 74.5t56.5 227.5 q0 123 -54.5 184.5t-157.5 61.5q-39 0 -68 -4.5t-59 -16.5q11 -34 27 -95t16 -104q0 -71 -49 -113t-128 -42q-75 0 -119.5 49t-44.5 119q0 124 143.5 211.5t360.5 87.5q150 0 248.5 -35t155.5 -86q56 -50 77.5 -107.5t21.5 -103.5q0 -44 -18.5 -99.5t-54.5 -97.5 q-44 -51 -115 -88t-166 -57v-16q65 -4 140.5 -24t133.5 -59q60 -40 100 -106.5t40 -163.5q0 -187 -179 -311t-461 -124q-202 0 -343 86.5t-141 212.5z" />
<glyph unicode="4" horiz-adv-x="1330" d="M49 10v184l718 909h279v-882h215v-211h-215v-379h-335v379h-662zM202 221h509v643z" />
<glyph unicode="5" horiz-adv-x="1227" d="M56 -73q0 71 45.5 120t121.5 49q79 0 129.5 -42.5t50.5 -113.5q0 -50 -17 -109t-28 -90q24 -9 56 -13.5t60 -4.5q57 0 112 25.5t94 74.5q45 56 68 132.5t23 173.5q0 141 -75.5 231.5t-195.5 90.5q-93 0 -156 -37.5t-113 -98.5l-78 26l97 736h845v-276h-773l-41 -330 q54 34 139 65t200 31q89 0 175.5 -19.5t168.5 -73.5q75 -50 126 -134.5t51 -209.5q0 -220 -170.5 -359.5t-435.5 -139.5q-205 0 -342 88t-137 208z" />
<glyph unicode="6" horiz-adv-x="1327" d="M103 564q0 366 247 605t671 289l23 -99l-106 -18q-121 -33 -202.5 -90.5t-134.5 -131.5q-51 -71 -80 -160.5t-44 -176.5q87 78 172.5 105t183.5 27q172 0 291 -125.5t119 -325.5q0 -212 -159.5 -355t-407.5 -143q-259 0 -416 162.5t-157 436.5zM466 548 q0 -240 58.5 -367.5t150.5 -127.5q89 0 143.5 100t54.5 283q0 158 -55.5 251t-148.5 93q-62 0 -107.5 -21t-91.5 -88q0 -5 -0.5 -17.5t-1.5 -32.5q-1 -22 -1.5 -41t-0.5 -32z" />
<glyph unicode="7" horiz-adv-x="1135" d="M89 584v493h1055v-119l-728 -1327h-150l674 1177h-458q-87 0 -136 -1t-90 -20q-33 -15 -56.5 -69.5t-37.5 -133.5h-73z" />
<glyph unicode="8" horiz-adv-x="1385" d="M104 344q0 129 83.5 212.5t263.5 125.5q-144 65 -217.5 164t-73.5 221q0 167 159.5 280t394.5 113q228 0 369.5 -100t141.5 -248q0 -114 -77 -191.5t-230 -123.5q192 -69 277.5 -169.5t85.5 -230.5q0 -184 -164.5 -309t-447.5 -125q-253 0 -409 107t-156 274zM439 364 q0 -147 71 -230t187 -83t182 68t66 177q0 70 -30 116t-86 83q-56 36 -142.5 74t-164.5 77q-33 -39 -58 -117t-25 -165zM495 1156q0 -66 25 -110.5t71 -77.5q42 -31 118.5 -68t136.5 -67q22 50 33.5 122.5t11.5 158.5q0 116 -51.5 187.5t-143.5 71.5q-87 0 -144 -61t-57 -156 z" />
<glyph unicode="9" horiz-adv-x="1327" d="M84 621q0 211 162 349.5t405 138.5q263 0 418 -163t155 -438q0 -364 -246 -595.5t-672 -287.5l-23 99l106 18q123 35 204 90t133 128q54 75 82 159t42 173q-88 -77 -170.5 -101.5t-185.5 -24.5q-86 0 -161 34t-130 93q-56 60 -87.5 144.5t-31.5 183.5zM454 644 q0 -160 56.5 -255t148.5 -95q58 0 107 23t91 86q0 5 1 17.5t1 32.5q0 14 1 34t1 39q0 240 -57.5 367.5t-149.5 127.5q-89 0 -144.5 -97t-55.5 -280z" />
<glyph unicode=":" horiz-adv-x="752" d="M179 166q0 80 58.5 138.5t139.5 58.5q80 0 138.5 -59t58.5 -138t-58.5 -137t-138.5 -58q-81 0 -139.5 57.5t-58.5 137.5zM179 799q0 80 58.5 138.5t139.5 58.5q80 0 138.5 -59t58.5 -138t-58.5 -137t-138.5 -58q-81 0 -139.5 57.5t-58.5 137.5z" />
<glyph unicode=";" horiz-adv-x="752" d="M177 173q0 64 50 115.5t123 51.5q112 0 170.5 -76.5t58.5 -210.5q0 -122 -102 -249.5t-245 -192.5l-44 71q49 26 92.5 56t77.5 70q35 42 55.5 85.5t25.5 106.5h-56q-102 0 -154 46t-52 127zM179 799q0 80 58.5 138.5t139.5 58.5q80 0 138.5 -59t58.5 -138t-58.5 -137 t-138.5 -58q-81 0 -139.5 57.5t-58.5 137.5z" />
<glyph unicode="&#x3c;" d="M209 506v139l1000 500v-188l-786 -382l786 -381v-188z" />
<glyph unicode="=" d="M185 286v163h1070v-163h-1070zM185 700v163h1070v-163h-1070z" />
<glyph unicode="&#x3e;" d="M231 6v188l786 381l-786 382v188l1000 -500v-139z" />
<glyph unicode="?" horiz-adv-x="1123" d="M79 1177q0 115 131 195t316 80q219 0 354.5 -114t135.5 -301q0 -201 -138 -326t-368 -143l-6 -136h-89v389q145 12 227 91.5t82 216.5q0 109 -57.5 174.5t-154.5 65.5q-41 0 -73 -8.5t-62 -26.5q10 -32 23.5 -82.5t13.5 -93.5q0 -70 -45.5 -108.5t-126.5 -38.5 q-76 0 -119.5 48t-43.5 118zM271 156q0 76 57.5 131.5t135.5 55.5q77 0 134.5 -55.5t57.5 -131.5t-57.5 -130.5t-134.5 -54.5q-78 0 -135.5 54.5t-57.5 130.5z" />
<glyph unicode="@" horiz-adv-x="1980" d="M158 477q0 175 68 336.5t193 287.5q123 124 303.5 200t393.5 76q188 0 321.5 -55.5t220.5 -148.5q87 -92 129.5 -210.5t42.5 -245.5q0 -252 -142.5 -427t-354.5 -175q-110 0 -181 37.5t-91 95.5h-5q-23 -25 -48.5 -50.5t-54.5 -42.5q-32 -18 -60 -26.5t-75 -8.5 q-123 0 -191.5 77.5t-68.5 204.5q0 96 40.5 197.5t110.5 185.5q68 81 164 133.5t199 52.5q69 0 104.5 -24.5t52.5 -74.5h2l32 87h257l-201 -555q-8 -20 -14.5 -56t-6.5 -55q0 -41 18 -64.5t57 -23.5q157 0 252 144.5t95 378.5q0 117 -39 216t-116 173t-193 116.5t-265 42.5 q-143 0 -276.5 -53.5t-242.5 -157.5q-107 -101 -172.5 -247.5t-65.5 -327.5q0 -177 52 -311.5t143 -224.5q92 -91 216 -137t274 -46q171 0 303 44.5t236 125.5l39 -62q-114 -91 -256.5 -146.5t-328.5 -55.5q-157 0 -316 50.5t-280 149.5q-123 99 -198.5 250t-75.5 350z M824 376q0 -68 19.5 -104t62.5 -36q38 0 68 19.5t62 63.5l153 441q-1 55 -27.5 90t-78.5 35q-50 0 -96.5 -45t-83.5 -118q-36 -72 -57.5 -164.5t-21.5 -181.5z" />
<glyph unicode="A" horiz-adv-x="1553" d="M-56 0v78q33 2 74.5 10.5t65.5 23.5q41 24 69.5 59t47.5 83q116 281 232.5 563t257.5 622h200q196 -482 307 -762t189 -464q13 -30 33 -54.5t57 -46.5q28 -16 65 -24t67 -10v-78h-773v78q54 4 127 19.5t73 38.5q0 8 -1.5 18t-8.5 27l-121 294h-490q-17 -41 -37.5 -96 t-35.5 -98q-19 -56 -22.5 -81t-3.5 -35q0 -32 48.5 -54.5t161.5 -32.5v-78h-582zM455 574h409l-206 514z" />
<glyph unicode="B" horiz-adv-x="1551" d="M69 0v78q31 3 78 9t66 14q37 15 50.5 39.5t13.5 63.5v1000q0 36 -11 60t-53 42q-31 13 -72 21.5t-72 13.5v78h771q291 0 420 -80t129 -236q0 -72 -29 -126.5t-83 -94.5q-49 -37 -117 -64t-146 -45v-19q78 -8 162 -34.5t146 -68.5q64 -44 104 -110.5t40 -156.5 q0 -108 -45.5 -182.5t-130.5 -117.5q-90 -46 -207.5 -65t-276.5 -19h-737zM632 180q9 -37 56 -62.5t114 -25.5q119 0 193.5 80t74.5 225q0 148 -88 227t-253 79q-19 0 -50.5 -1.5t-46.5 -2.5v-519zM632 798h52q162 0 239 75.5t77 204.5q0 118 -66.5 184t-199.5 66 q-19 0 -49.5 -1.5t-52.5 -2.5v-526z" />
<glyph unicode="C" horiz-adv-x="1465" d="M71 696q0 165 57.5 305.5t161.5 243.5q102 101 245 156.5t306 55.5q118 0 215 -28.5t164 -64.5l62 55h87l9 -518h-88q-75 237 -180 348t-256 111q-188 0 -286 -165.5t-98 -464.5q0 -169 33.5 -288.5t87.5 -192.5q58 -76 137 -111.5t175 -35.5q140 0 249.5 76t199.5 230 l86 -52q-43 -88 -98 -157.5t-127 -119.5q-79 -55 -174.5 -86t-225.5 -31q-156 0 -292 50.5t-237 146.5q-99 94 -156 232.5t-57 304.5z" />
<glyph unicode="D" horiz-adv-x="1708" d="M67 1341v78h755q121 0 259 -31t266 -115q130 -85 210 -226.5t80 -346.5q0 -180 -71.5 -313.5t-189.5 -218.5q-120 -85 -272.5 -126.5t-319.5 -41.5h-715v78q32 1 80 6t64 12q36 15 50 40.5t14 61.5v1006q0 34 -13 61.5t-51 44.5t-80.5 23t-65.5 8zM632 247 q0 -36 9.5 -63.5t32.5 -48.5t56.5 -32.5t87.5 -11.5q113 0 194 42t131 123q49 80 71.5 190.5t22.5 254.5q0 141 -30 257t-88 198t-144.5 127t-196.5 45q-35 0 -79.5 -1.5t-66.5 -2.5v-1077z" />
<glyph unicode="E" horiz-adv-x="1477" d="M69 0v78q28 2 76 8t68 14q38 16 51 40.5t13 62.5v1001q0 36 -11 59.5t-53 42.5q-26 12 -73 22t-71 13v78h1258v-362h-76q-29 81 -100 164t-141 98q-30 7 -83.5 8.5t-88.5 1.5h-206v-548h146q55 0 100 13t82 50q23 23 46.5 81t30.5 101h76v-592h-76q-6 42 -30.5 105.5 t-46.5 87.5q-33 36 -78 49.5t-104 13.5h-146v-409q0 -64 9.5 -101.5t35.5 -57.5q25 -19 68.5 -25t118.5 -6q35 0 84 1t86 6q42 5 78.5 15t54.5 29q48 49 108 149.5t79 150.5h73l-27 -442h-1331z" />
<glyph unicode="F" horiz-adv-x="1375" d="M69 0v78q29 3 77 8.5t67 13.5q36 14 50 39t14 64v1001q0 34 -12.5 59.5t-51.5 42.5q-28 12 -74 22t-70 13v78h1275v-379h-77q-29 83 -102.5 176.5t-139.5 102.5q-30 4 -80 7t-92 3h-221v-557h141q60 0 104 13.5t78 48.5q25 25 48.5 83.5t28.5 100.5h76v-597h-76 q-4 45 -31 109.5t-46 85.5q-29 32 -74 47.5t-108 15.5h-141v-470q0 -36 13.5 -61.5t51.5 -41.5q22 -9 60.5 -16.5t76.5 -11.5v-78h-765z" />
<glyph unicode="G" horiz-adv-x="1653" d="M71 696q0 166 55 307t159 243q102 101 248.5 156t324.5 55q121 0 224 -29.5t170 -63.5l62 55h87l9 -518h-88q-76 233 -182 346t-268 113q-192 0 -296.5 -168t-104.5 -463q0 -313 102.5 -490t290.5 -177q88 0 156.5 26.5t106.5 61.5v288q0 36 -13 60.5t-52 42.5 q-30 14 -75 23t-75 13v78h737v-78q-31 -3 -55 -7t-60 -16q-41 -13 -54 -43t-13 -63v-165q0 -50 1 -80.5t3 -75.5q-100 -60 -295.5 -113t-359.5 -53q-154 0 -289 47t-237 141q-102 93 -160.5 231t-58.5 316z" />
<glyph unicode="H" horiz-adv-x="1870" d="M69 0v78q25 1 73.5 6.5t70.5 13.5q36 13 50 39.5t14 62.5v1004q0 35 -12.5 59t-51.5 42q-29 13 -76 23.5t-68 12.5v78h767v-78q-31 -2 -74 -10t-66 -15q-39 -13 -51.5 -41.5t-12.5 -60.5v-424h606v414q0 35 -13 59t-52 42q-26 12 -69.5 22.5t-69.5 13.5v78h767v-78 q-32 -2 -72 -8.5t-72 -16.5q-38 -13 -51 -41t-13 -61v-1005q0 -36 13 -61t51 -42q24 -10 69.5 -18t74.5 -10v-78h-767v78q25 2 73 6t66 12q37 15 51 39.5t14 62.5v489h-606v-478q0 -34 14.5 -61t49.5 -42q19 -8 65 -17t75 -11v-78h-767z" />
<glyph unicode="I" horiz-adv-x="913" d="M63 0v78q27 2 79.5 6t72.5 12q37 15 50.5 39.5t13.5 62.5v1006q0 34 -13 60t-51 42q-24 10 -71 20.5t-81 14.5v78h787v-78q-30 -3 -75 -8.5t-76 -15.5q-39 -13 -52 -40.5t-13 -62.5v-1005q0 -36 13.5 -61.5t51.5 -41.5q21 -9 69.5 -17.5t81.5 -10.5v-78h-787z" />
<glyph unicode="J" horiz-adv-x="1219" d="M17 299q0 93 52.5 154t144.5 61q87 0 138.5 -51t51.5 -126q0 -64 -44.5 -118.5t-101.5 -100.5v-13q9 -20 39 -34t61 -14q120 0 188.5 86t68.5 260v801q0 36 -11 60t-53 42q-30 13 -72.5 22t-70.5 13v78h758v-78q-40 -5 -68 -10t-63 -14q-41 -11 -52.5 -39t-11.5 -64v-782 q0 -108 -43.5 -198t-119.5 -151q-77 -60 -172 -90.5t-203 -30.5q-187 0 -301.5 90t-114.5 247z" />
<glyph unicode="K" horiz-adv-x="1673" d="M67 0v78q27 2 76.5 6t69.5 12q36 14 50 39t14 63v1006q0 35 -12 59t-52 43q-31 14 -75 23t-71 12v78h779v-78q-31 -3 -74.5 -8.5t-74.5 -15.5q-39 -13 -52 -41t-13 -62v-478h42q78 71 182 171t161 164q80 89 117.5 141t37.5 90q0 17 -36 26t-110 13v78h617v-78 q-112 -12 -188 -40.5t-151 -95.5q-107 -96 -176.5 -166.5t-178.5 -180.5q96 -117 231 -286.5t269 -330.5q34 -41 78 -78.5t97 -60.5q25 -11 57 -17t55 -7v-78h-562q-127 195 -229 326t-261 329h-52v-446q0 -36 13 -61t52 -42q18 -8 53.5 -16t70.5 -12v-78h-754z" />
<glyph unicode="L" horiz-adv-x="1404" d="M69 0v78q35 3 82 9.5t62 12.5q36 14 50 39t14 64v1001q0 36 -11 59.5t-53 42.5q-31 14 -74.5 22.5t-69.5 12.5v78h779v-78q-32 -3 -75.5 -8.5t-75.5 -15.5q-39 -13 -52 -40.5t-13 -62.5v-933q0 -66 9 -104t35 -56q26 -19 72.5 -24.5t128.5 -5.5q80 0 155.5 9.5 t108.5 41.5q51 51 104.5 143.5t85.5 169.5h73l-28 -455h-1307z" />
<glyph unicode="M" horiz-adv-x="2096" d="M35 0v78q25 3 81.5 13.5t92.5 36.5q40 28 54 94.5t14 189.5v703q0 64 -16 106.5t-48 67.5q-40 31 -82 40t-85 12v78h653l350 -937l295 761q15 42 29 100t15 76h629v-78q-32 -2 -67 -8t-67 -16q-39 -13 -51.5 -41t-12.5 -62v-1005q0 -36 12.5 -60.5t51.5 -42.5 q20 -9 65.5 -17t70.5 -11v-78h-769v78q34 3 83.5 10t67.5 15q37 15 53 41t16 66v1060l-488 -1247h-126q-9 33 -44.5 131t-57.5 157l-359 975v-863q0 -124 16.5 -188.5t53.5 -94.5q25 -21 89.5 -40t90.5 -22v-78h-610z" />
<glyph unicode="N" horiz-adv-x="1719" d="M29 1339v80h534l776 -960v537q0 128 -17 190.5t-54 92.5q-29 23 -86 39.5t-92 22.5v78h609v-78q-28 -3 -80 -11t-94 -39q-37 -27 -52.5 -92.5t-15.5 -192.5v-1014h-178l-884 1097v-666q0 -124 16.5 -188.5t53.5 -94.5q27 -22 86 -39t94 -23v-78h-610v78q39 3 89.5 14.5 t84.5 35.5q39 29 53.5 87.5t14.5 196.5v672q0 50 -15.5 94.5t-48.5 76.5q-35 34 -80.5 53.5t-103.5 30.5z" />
<glyph unicode="O" horiz-adv-x="1679" d="M71 694q0 174 59.5 315.5t163.5 242.5q103 99 244.5 152.5t301.5 53.5q159 0 298.5 -52t241.5 -145q105 -96 166.5 -232t61.5 -310q0 -155 -52 -295t-150 -241q-103 -105 -242 -163.5t-331 -58.5q-155 0 -293 51t-243 148q-104 95 -165 231t-61 303zM471 704 q0 -133 20.5 -251t64.5 -206q45 -89 114 -138.5t170 -49.5q99 0 170 50t113 137q45 91 65 206t20 260q0 123 -17.5 239.5t-59.5 207.5q-43 91 -114 146t-177 55q-181 0 -275 -171.5t-94 -484.5z" />
<glyph unicode="P" horiz-adv-x="1436" d="M69 0v78q29 3 77 8.5t67 13.5q39 16 51.5 39t12.5 64v1001q0 35 -12 60.5t-52 42.5q-28 12 -74.5 21.5t-69.5 12.5v78h783q275 0 411 -87.5t136 -267.5q0 -120 -49.5 -206.5t-136.5 -140.5q-90 -56 -205.5 -81t-259.5 -25h-116v-399q0 -36 13.5 -62.5t51.5 -42.5 q20 -8 65 -17t76 -12v-78h-769zM632 705h42q164 0 249.5 75.5t85.5 232.5q0 160 -64.5 237.5t-229.5 77.5h-83v-623z" />
<glyph unicode="Q" horiz-adv-x="1679" d="M71 694q0 174 59.5 315.5t163.5 242.5q103 99 244.5 152.5t301.5 53.5q159 0 298.5 -52t241.5 -145q105 -96 166.5 -232t61.5 -310q0 -247 -123.5 -434t-349.5 -269q3 -119 72 -206t163 -87q58 0 101.5 7t78.5 16v-88q-57 -24 -169 -48.5t-235 -24.5q-168 0 -276.5 100.5 t-121.5 280.5q-142 14 -264 70t-215 151q-91 94 -144.5 223t-53.5 284zM471 704q0 -133 20.5 -251t64.5 -206q45 -89 114 -138.5t170 -49.5q99 0 170 50t113 137q45 91 65 206t20 260q0 123 -17.5 239.5t-59.5 207.5q-43 91 -114 146t-177 55q-181 0 -275 -171.5t-94 -484.5 z" />
<glyph unicode="R" horiz-adv-x="1633" d="M69 0v78q29 3 76.5 8.5t67.5 13.5q38 16 51 40.5t13 62.5v1001q0 36 -11 60t-53 42q-32 13 -75.5 22t-68.5 13v78h796q267 0 405.5 -83.5t138.5 -252.5q0 -149 -85.5 -239.5t-260.5 -141.5q68 -88 158.5 -204t188.5 -237q31 -39 84.5 -95.5t94.5 -69.5q23 -7 58.5 -12 t50.5 -6v-78h-544q-141 216 -234.5 344t-232.5 296h-55v-431q0 -36 13.5 -61t51.5 -42q19 -8 59.5 -16.5t69.5 -11.5v-78h-757zM632 734h76q147 0 228 77t81 244q0 142 -79.5 207.5t-226.5 65.5h-79v-594z" />
<glyph unicode="S" horiz-adv-x="1329" d="M64 513h86q29 -73 74 -154t104 -145q61 -67 136.5 -109t176.5 -42q136 0 208.5 66.5t72.5 167.5q0 83 -61.5 139.5t-190.5 97.5q-84 27 -154.5 50t-132.5 47q-143 57 -212.5 163t-69.5 237q0 83 36 159.5t105 137.5q66 57 169 93t224 36q118 0 221 -32.5t162 -65.5l61 60 h87l8 -484h-86q-30 78 -70.5 159.5t-85.5 135.5q-49 58 -113 92.5t-150 34.5q-108 0 -176.5 -61t-68.5 -151q0 -85 59.5 -139t185.5 -95q74 -25 151 -50t137 -48q145 -56 220.5 -154.5t75.5 -244.5q0 -92 -43 -178t-116 -143q-80 -63 -185 -97t-245 -34q-130 0 -242.5 32 t-190.5 76l-69 -70h-85z" />
<glyph unicode="T" horiz-adv-x="1401" d="M13 1013v406h1375v-406h-77q-31 91 -99.5 195t-126.5 112q-32 4 -79 7t-81 3h-47v-1113q0 -36 13 -63.5t51 -43.5q23 -9 71.5 -18.5t82.5 -13.5v-78h-791v78q29 3 81.5 8.5t71.5 13.5q39 16 52 43t13 64v1123h-47q-34 0 -81 -3t-79 -7q-58 -8 -126.5 -112t-99.5 -195h-77 z" />
<glyph unicode="U" horiz-adv-x="1707" d="M57 1343v76h744v-76q-32 -2 -65 -7.5t-67 -16.5q-38 -12 -51 -40t-13 -63v-716q0 -211 93 -307t270 -96q174 0 273 106t99 312v481q0 128 -17.5 191.5t-53.5 91.5q-26 22 -90.5 40t-90.5 22v78h615v-78q-29 -3 -83.5 -13.5t-91.5 -36.5q-38 -25 -53.5 -90t-15.5 -195 v-528q0 -233 -158 -375t-418 -142q-303 0 -469 137t-166 382v726q0 35 -13.5 60t-51.5 45q-26 13 -64 21t-62 11z" />
<glyph unicode="V" horiz-adv-x="1561" d="M-64 1341v78h769v-76q-108 -13 -146.5 -27.5t-38.5 -36.5q0 -11 3.5 -23.5t10.5 -33.5q32 -88 116 -287.5t249 -608.5q101 249 168 421t118 304q25 64 41.5 119.5t16.5 83.5q0 32 -46 53.5t-170 31.5v80h575v-80q-33 -3 -63 -12t-62 -28q-43 -25 -66.5 -53.5t-46.5 -78.5 q-31 -69 -87 -201.5t-128 -301.5q-64 -152 -138.5 -333t-142.5 -347h-201q-140 343 -285 697t-204 492q-23 50 -44.5 75.5t-68.5 52.5q-34 19 -60 26.5t-69 13.5z" />
<glyph unicode="W" horiz-adv-x="2307" d="M-41 1341v78h757v-76q-67 -8 -100 -15.5t-52 -15.5q-18 -8 -22 -17t-4 -16q0 -14 3.5 -27t7.5 -30q24 -78 97 -296t180 -541l323 1034h212l375 -1066q83 257 132.5 420t83.5 279q20 71 32 119t12 83q0 21 -19.5 36t-52.5 26q-28 9 -72.5 14.5t-77.5 8.5v80h571v-80 q-31 -3 -62 -13.5t-61 -26.5q-46 -26 -65.5 -57t-35.5 -75q-55 -152 -169.5 -487t-238.5 -696h-201l-375 1055l-338 -1055h-201q-167 486 -256 748.5t-150 440.5q-19 54 -43 78.5t-62 49.5q-27 18 -57.5 26.5t-70.5 13.5z" />
<glyph unicode="X" horiz-adv-x="1656" d="M9 0v78q43 3 68.5 9t50.5 17q58 27 103 68.5t93 96.5q70 79 158 179t185 213q-92 139 -184 270t-156 223q-32 46 -79.5 92t-99.5 66q-26 11 -58 18.5t-77 10.5v78h867v-78q-101 -4 -149.5 -18t-48.5 -42q0 -14 9.5 -35.5t37.5 -67.5q24 -40 74.5 -117t114.5 -175 q189 225 237.5 293.5t48.5 93.5q0 29 -28 43.5t-131 24.5v78h553v-78q-38 -1 -62.5 -7t-56.5 -19q-62 -28 -104 -69t-92 -96q-74 -82 -141.5 -159.5t-165.5 -189.5q121 -182 207 -305t163 -231q30 -46 77.5 -92.5t98.5 -66.5q24 -9 55 -17t82 -11v-78h-865v78 q124 7 160 21.5t36 38.5q0 13 -13 41.5t-36 65.5q-35 59 -93.5 147.5t-121.5 182.5q-210 -243 -266.5 -323t-56.5 -106q0 -14 4.5 -23.5t23.5 -18.5q14 -8 48 -15t81 -11v-78h-551z" />
<glyph unicode="Y" horiz-adv-x="1499" d="M-61 1341v78h813v-78q-112 -3 -151 -15.5t-39 -34.5q0 -11 14.5 -44t51.5 -102q34 -65 99.5 -179t157.5 -267q190 301 261 420.5t71 146.5q0 34 -41.5 52t-134.5 23v78h526v-78q-36 -4 -66 -13t-57 -25q-43 -24 -76.5 -61.5t-65.5 -83.5q-65 -95 -136.5 -206.5 t-155.5 -245.5q-55 -85 -67.5 -130.5t-12.5 -157.5v-201q0 -36 13.5 -63t51.5 -44q17 -7 72 -18.5t81 -13.5v-78h-791v78q28 2 80.5 8t73.5 14q37 16 50.5 42.5t13.5 64.5v250q0 33 -1 58t-7 42q-7 19 -24 48.5t-44 76.5q-77 135 -149 256t-137 227q-34 55 -68.5 88.5 t-70.5 54.5q-27 15 -65.5 23t-69.5 10z" />
<glyph unicode="Z" horiz-adv-x="1412" d="M17 0v61l917 1266h-311q-95 0 -137 -5.5t-79 -22.5q-43 -16 -95 -84.5t-139 -228.5h-81l44 433h1234v-61l-917 -1266h357q168 0 228.5 13.5t88.5 48.5q57 69 105.5 151.5t89.5 173.5h75l-48 -479h-1332z" />
<glyph unicode="[" horiz-adv-x="915" d="M185 -310v1829h662v-99h-347v-1630h347v-100h-662z" />
<glyph unicode="\" horiz-adv-x="966" d="M68 1523h182l689 -1947h-180z" />
<glyph unicode="]" horiz-adv-x="915" d="M69 -210h347v1630h-347v99h662v-1829h-662v100z" />
<glyph unicode="^" d="M209 760l442 696h140l442 -696h-196l-317 513l-317 -513h-194z" />
<glyph unicode="_" d="M-5 -180h1450v-122h-1450v122z" />
<glyph unicode="`" horiz-adv-x="1024" d="M218 1460q0 36 38.5 62t86.5 26q61 0 97 -18.5t82 -85.5q33 -48 89.5 -127.5t129.5 -177.5l-42 -38q-166 100 -250.5 144.5t-144.5 85.5q-47 32 -66.5 56.5t-19.5 72.5z" />
<glyph unicode="a" horiz-adv-x="1220" d="M79 219q0 65 18 110.5t51 80.5q30 32 69.5 53t86.5 39q90 33 216 68.5t184 63.5v96q0 25 -4 66t-17 69q-14 32 -44 54t-79 22q-44 0 -73.5 -12.5t-47.5 -25.5q3 -20 17 -61t14 -79q0 -17 -9 -42.5t-26 -40.5q-23 -20 -51.5 -31t-87.5 -11q-84 0 -127 40.5t-43 105.5 q0 56 44.5 100.5t108.5 73.5q63 30 145 46.5t152 16.5q97 0 178 -11.5t146 -47.5q62 -35 98.5 -101.5t36.5 -173.5q0 -113 -4.5 -268t-4.5 -204q0 -45 13.5 -71t41.5 -39q17 -8 53.5 -9.5t66.5 -1.5v-73q-44 -19 -104 -35t-127 -16q-123 0 -181 36.5t-79 104.5h-6 q-34 -34 -65.5 -58t-67.5 -41q-47 -22 -90.5 -32.5t-121.5 -10.5q-116 0 -198 68.5t-82 181.5zM424 273q0 -78 35.5 -113t87.5 -35q55 0 90.5 22.5t62.5 55.5l4 339q-56 -19 -111 -43.5t-90 -51.5q-37 -28 -58 -71.5t-21 -102.5z" />
<glyph unicode="b" horiz-adv-x="1322" d="M-20 1449v73l494 26l15 -16v-650h6q73 71 150 104t154 33q210 0 331 -143t121 -387q0 -225 -148.5 -373t-376.5 -148q-88 0 -151.5 12.5t-107.5 30.5q-46 19 -73.5 37.5t-43.5 30.5l-143 -130l-59 23q5 73 8.5 158.5t3.5 230.5v936q0 38 -15.5 70.5t-41.5 49.5 q-19 12 -55.5 21t-67.5 11zM489 206q6 -20 22.5 -52.5t33.5 -50.5q24 -26 51 -39.5t76 -13.5q102 0 161 111.5t59 315.5q0 76 -11.5 146.5t-38.5 124.5t-71 86.5t-109 32.5q-61 0 -101 -20t-72 -59v-582z" />
<glyph unicode="c" horiz-adv-x="1088" d="M71 498q0 104 41.5 198t112.5 165q73 73 181.5 116.5t239.5 43.5q184 0 291 -69.5t107 -187.5q0 -72 -38 -116t-131 -44q-75 0 -125.5 36t-50.5 94q0 49 16 97t19 73q-11 18 -28 27.5t-53 9.5q-45 0 -82 -21t-69 -74q-31 -50 -49.5 -134t-18.5 -202q0 -178 83.5 -287 t199.5 -109q111 0 176.5 49.5t116.5 140.5l75 -52q-31 -61 -74 -111.5t-103 -89.5q-63 -41 -128 -62t-151 -21q-139 0 -245.5 40.5t-175.5 110.5q-69 71 -103 168t-34 211z" />
<glyph unicode="d" horiz-adv-x="1358" d="M71 506q0 211 146.5 362t354.5 151q82 0 154 -18.5t115 -43.5v327q0 37 -15 69.5t-40 50.5q-31 22 -77.5 31.5t-93.5 13.5v73l540 26l15 -16v-1311q0 -38 12.5 -64t40.5 -41q21 -11 61.5 -16t66.5 -6v-73l-493 -29l-15 14v92l-7 2q-49 -53 -132.5 -92.5t-168.5 -39.5 q-202 0 -333 150t-131 388zM430 489q0 -81 11.5 -145.5t40.5 -117.5t74.5 -83t109.5 -30q61 0 101 23.5t74 62.5v565q-7 23 -19.5 51t-34.5 53q-20 21 -53.5 37t-75.5 16q-100 0 -164 -113t-64 -319z" />
<glyph unicode="e" horiz-adv-x="1171" d="M71 500q0 102 37.5 195.5t106.5 166.5q68 71 171.5 115t231.5 44q140 0 230 -34t149 -94q57 -57 83 -134.5t26 -162.5v-65h-676q0 -205 79 -312t251 -107q94 0 169 51.5t128 130.5l76 -55q-35 -57 -84.5 -107.5t-112.5 -86.5q-67 -38 -135.5 -57.5t-157.5 -19.5 q-148 0 -255.5 42t-177.5 113t-104.5 167.5t-34.5 209.5zM430 615l321 4q0 60 -6 123t-21 103q-17 47 -46.5 71t-74.5 24q-77 0 -123 -78t-50 -247z" />
<glyph unicode="f" horiz-adv-x="805" d="M6 880v108h203q0 107 31 207.5t96 179.5q63 78 166 126t242 48q124 0 192 -47t68 -123q0 -25 -8 -55t-26 -51q-21 -25 -47 -38t-78 -13q-79 0 -124 55t-96 183q-40 -17 -65 -88t-25 -305v-79h276v-108h-274v-689q0 -39 18 -60.5t47 -31.5q24 -8 63 -15.5t70 -10.5v-73 h-675v73q26 2 50.5 5t43.5 10q32 12 43.5 34.5t11.5 59.5v698h-203z" />
<glyph unicode="g" horiz-adv-x="1181" d="M28 -188q0 79 74 130t230 56v12q-92 31 -143.5 82.5t-51.5 119.5q0 42 20.5 71t52.5 51q28 19 68 32.5t67 21.5v11q-135 50 -198.5 122t-63.5 176q0 147 135.5 235t343.5 88q68 0 131.5 -11.5t96.5 -20.5h388v-108h-220q39 -44 58.5 -93t19.5 -102q0 -69 -37 -129.5 t-97 -98.5q-61 -39 -143 -61t-178 -22h-163q-12 -9 -26.5 -28.5t-14.5 -37.5q0 -44 35 -61t127 -19q91 -2 184 -7.5t133 -6.5q58 -3 115 -23.5t99 -53.5q46 -35 76 -89.5t30 -125.5q0 -76 -36.5 -143t-111.5 -116q-79 -51 -189.5 -79t-273.5 -28q-263 0 -400 64t-137 192z M346 -189q0 -25 14 -55t44 -56q35 -29 78 -45.5t130 -16.5q129 0 197 50t68 161q0 34 -19 67.5t-85 54.5q-36 6 -118.5 8t-226.5 2q-35 -30 -58.5 -71t-23.5 -99zM414 697q0 -109 38 -179t108 -70q72 0 110.5 63t38.5 178q0 117 -37 185t-114 68q-39 0 -68 -18.5t-47 -53.5 q-17 -34 -23 -79.5t-6 -93.5z" />
<glyph unicode="h" horiz-adv-x="1392" d="M3 1449v73l497 26l15 -16v-688h4q38 34 68.5 61.5t74.5 55.5q37 24 96.5 41t128.5 17q162 0 243.5 -93t81.5 -245v-490q0 -37 11 -59t41 -35q18 -8 40 -14t54 -10v-73h-602v73q20 2 47 5t40 10q21 11 29.5 32t8.5 62v468q0 103 -38.5 154t-109.5 51q-40 0 -74.5 -12 t-67.5 -35q-29 -20 -46.5 -41t-29.5 -37v-537q0 -37 9 -58.5t34 -35.5q15 -9 39.5 -16t47.5 -10v-73h-608v73q26 2 50.5 5t43.5 10q32 12 43.5 34.5t11.5 59.5v1115q0 32 -15 68t-42 54q-20 13 -58 20.5t-68 9.5z" />
<glyph unicode="i" horiz-adv-x="724" d="M33 905v73l490 26l15 -15v-794q0 -35 15 -59.5t43 -36.5q20 -9 44 -16t50 -10v-73h-632v73q26 2 51 5t43 10q32 12 45 34.5t13 59.5v582q0 35 -16 61.5t-40 42.5q-18 12 -54.5 23t-66.5 14zM149 1364q0 76 58.5 130t139.5 54t139 -54t58 -130t-58.5 -129.5t-138.5 -53.5 q-81 0 -139.5 53.5t-58.5 129.5z" />
<glyph unicode="j" horiz-adv-x="709" d="M-239 -272q0 28 6.5 52t27.5 50q16 22 49.5 37.5t75.5 15.5q83 0 128 -59.5t92 -178.5q41 23 60.5 98t19.5 326v691q0 35 -15 61.5t-41 44.5q-19 13 -60.5 24.5t-73.5 14.5v73l506 26l15 -15v-871q0 -103 -35 -208t-100 -180q-71 -82 -172 -128t-231 -46 q-121 0 -186.5 46.5t-65.5 125.5zM160 1364q0 76 58.5 130t139.5 54t139 -54t58 -130t-58.5 -129.5t-138.5 -53.5q-81 0 -139.5 53.5t-58.5 129.5z" />
<glyph unicode="k" horiz-adv-x="1294" d="M3 1449v73l497 26l15 -16v-1032q74 66 166.5 153t148.5 144q33 34 36.5 51.5t3.5 21.5q0 18 -31.5 30t-94.5 21v71h508v-69q-100 -28 -152.5 -52.5t-114.5 -65.5q-41 -27 -79.5 -56.5t-88.5 -73.5q98 -142 181 -263t174 -256q31 -47 77 -63t92 -20v-73h-471 q-87 153 -159 259.5t-136 197.5l-60 -51v-218q0 -36 10.5 -59t40.5 -34q18 -8 42 -14t48 -8v-73h-619v73q25 2 50 5.5t44 9.5q32 11 43.5 34t11.5 60v1115q0 33 -14.5 68.5t-42.5 53.5q-19 12 -57 20t-69 10z" />
<glyph unicode="l" horiz-adv-x="705" d="M0 1449v73l503 26l15 -16v-1337q0 -37 13 -60t42 -36q20 -9 42 -16t52 -10v-73h-627v73q26 2 50.5 5t43.5 10q32 12 43.5 34.5t11.5 59.5v1108q0 38 -15.5 70.5t-41.5 49.5q-20 13 -60.5 25t-71.5 14z" />
<glyph unicode="m" horiz-adv-x="2080" d="M44 905v73l477 26l15 -15v-141h4q28 25 66.5 59.5t72.5 55.5q37 24 95 40t127 16q114 0 190.5 -49.5t108.5 -131.5h9q29 27 71 63.5t77 58.5q39 25 99.5 42t129.5 17q151 0 232.5 -89t81.5 -253v-486q0 -37 11 -59.5t40 -34.5q16 -7 39.5 -14t54.5 -10v-73h-596v73 q22 3 46 5t40 10q22 10 28 33.5t6 60.5v467q0 103 -36.5 154.5t-104.5 51.5q-43 0 -76.5 -13.5t-61.5 -33.5q-29 -21 -45 -42t-27 -36v-537q0 -36 8.5 -58.5t31.5 -35.5q16 -9 36.5 -16t43.5 -10v-73h-571v73q19 2 46 5t40 10q21 11 27.5 32t6.5 62v467q0 103 -36.5 154.5 t-104.5 51.5q-43 0 -76.5 -13.5t-61.5 -33.5q-29 -21 -45 -42t-27 -36v-537q0 -35 9 -58t32 -36q16 -9 36.5 -16t43.5 -10v-73h-599v73q26 2 51 5t43 10q32 12 44 34.5t12 59.5v582q0 32 -17 62.5t-41 47.5q-18 12 -45.5 20t-60.5 11z" />
<glyph unicode="n" horiz-adv-x="1413" d="M44 905v73l477 26l15 -15v-145h4q28 25 68 60t74 57q37 24 97 41t128 17q163 0 244.5 -92.5t81.5 -245.5v-490q0 -37 11 -59t41 -35q16 -7 39.5 -14t53.5 -10v-73h-602v73q19 2 46 5t41 10q21 11 30 32t9 62v468q0 102 -37.5 153.5t-110.5 51.5q-40 0 -74.5 -12 t-67.5 -35q-29 -20 -46.5 -41t-29.5 -37v-537q0 -35 10 -58.5t33 -35.5q16 -9 40 -16t47 -10v-73h-608v73q25 2 50.5 5.5t43.5 9.5q32 11 44 34t12 60v582q0 31 -16 61t-42 49q-18 12 -45.5 20t-60.5 11z" />
<glyph unicode="o" horiz-adv-x="1302" d="M71 494q0 120 38.5 213.5t115.5 166.5q74 70 182.5 108.5t242.5 38.5q140 0 246.5 -38.5t182.5 -108.5q74 -69 113 -165t39 -208q0 -111 -38.5 -209.5t-112.5 -168.5q-79 -75 -188.5 -115t-250.5 -40q-122 0 -224.5 35t-181.5 105q-76 67 -120 165.5t-44 220.5zM436 507 q0 -109 7 -180.5t34 -143.5q23 -62 66 -98t109 -36q60 0 103 33.5t68 98.5q22 56 32.5 136t10.5 186q0 70 -10 160t-30 142q-24 63 -66.5 99t-107.5 36q-71 0 -113.5 -39t-65.5 -101q-21 -57 -29 -133.5t-8 -159.5z" />
<glyph unicode="p" horiz-adv-x="1347" d="M11 -370q25 2 63 7.5t57 11.5q32 11 43.5 37.5t11.5 60.5v1023q-3 33 -15.5 58t-39.5 44q-20 13 -53 21.5t-65 11.5v73l487 26l15 -13v-111l8 -2q66 67 146.5 104t159.5 37q207 0 327 -146.5t120 -385.5q0 -211 -141 -362t-357 -151q-96 0 -156 19.5t-99 47.5h-8v-281 q0 -35 15.5 -61t43.5 -38q27 -11 76.5 -20t82.5 -11v-74h-722v74zM515 219q6 -20 23 -51.5t34 -50.5q25 -27 57 -40t70 -13q99 0 158.5 106.5t59.5 312.5q0 75 -11 143.5t-39 122.5q-27 54 -71.5 86t-108.5 32q-65 0 -104 -22.5t-68 -58.5v-567z" />
<glyph unicode="q" horiz-adv-x="1328" d="M71 506q0 221 153 367t387 146q118 0 213 -26.5t177 -69.5l130 128l55 -13q-3 -63 -9.5 -164.5t-6.5 -168.5v-941q0 -37 13.5 -63.5t43.5 -39.5q22 -10 60 -19t68 -12v-74h-700v74q28 2 67.5 6.5t61.5 12.5q31 10 44 36t13 62v349l-8 2q-17 -16 -44.5 -39t-66.5 -41 q-43 -21 -82.5 -32.5t-104.5 -11.5q-208 0 -336 144t-128 388zM430 491q0 -84 13 -148.5t39 -112.5q30 -53 72 -82t112 -29q64 0 104 21.5t71 58.5v565q-7 25 -19.5 54t-35.5 56q-22 25 -54.5 41t-78.5 16q-100 0 -161.5 -117t-61.5 -323z" />
<glyph unicode="r" horiz-adv-x="1065" d="M44 905v73l477 26l15 -15v-145h4q69 80 146.5 125.5t161.5 45.5q93 0 149.5 -57.5t56.5 -148.5q0 -76 -47 -133.5t-124 -57.5q-73 0 -123.5 37t-50.5 109q0 35 5 54.5t9 36.5q-46 -2 -97 -32t-90 -80v-549q0 -35 11 -58t37 -36q22 -11 71.5 -18.5t71.5 -8.5v-73h-669v73 q25 2 50.5 5.5t43.5 9.5q32 11 44 34t12 60v582q0 36 -17 64.5t-41 45.5q-18 12 -45.5 20t-60.5 11z" />
<glyph unicode="s" horiz-adv-x="1050" d="M67 360h73q15 -45 50 -101.5t80 -101.5q47 -45 107.5 -76t129.5 -31q91 0 135.5 35.5t44.5 109.5q0 40 -20 66t-55 45q-39 20 -85.5 34t-114.5 34t-116.5 40.5t-100.5 64.5q-45 39 -72 94t-27 131q0 141 118.5 228t310.5 87q91 0 167.5 -18.5t128.5 -40.5l21 59h76 l16 -341h-71q-35 104 -120 179.5t-183 75.5q-77 0 -121 -32t-44 -89q0 -76 64.5 -110t180.5 -64q179 -46 262 -125.5t83 -202.5q0 -164 -128.5 -254t-335.5 -90q-97 0 -189.5 28.5t-143.5 60.5l-30 -68h-78z" />
<glyph unicode="t" horiz-adv-x="814" d="M0 880v108h184v303h325v-303h280v-108h-278v-548q0 -117 32.5 -166t116.5 -49q27 0 75 4t67 9v-84q-64 -28 -137 -50.5t-178 -22.5q-156 0 -231.5 76t-75.5 217v614h-180z" />
<glyph unicode="u" horiz-adv-x="1386" d="M15 905v73l485 26l11 -15v-665q0 -103 39.5 -152t108.5 -49q71 0 127.5 37t82.5 79v539q0 34 -13 61t-38 44q-18 12 -51.5 16t-68.5 6v73l485 26l15 -15v-772q0 -35 14 -59.5t41 -41.5q19 -12 49.5 -16.5t60.5 -5.5v-73l-477 -29l-15 14v131h-6q-34 -31 -66.5 -60.5 t-77.5 -53.5q-51 -27 -96.5 -40t-132.5 -13q-151 0 -231.5 91t-80.5 257v450q0 39 -15 63.5t-40 43.5q-20 15 -52 21.5t-58 8.5z" />
<glyph unicode="v" horiz-adv-x="1161" d="M-27 919v73h616v-73q-34 -1 -80 -15t-46 -36q0 -6 4 -18t10 -27q32 -76 96.5 -219t136.5 -301q50 109 95.5 213.5t112.5 266.5q9 24 10.5 39t1.5 20q0 18 -17.5 31.5t-41.5 23.5q-25 10 -48 15t-38 7v73h413v-73q-45 -7 -87.5 -34t-70.5 -84q-70 -146 -137.5 -294.5 t-132.5 -287.5q-20 -42 -45.5 -108t-42.5 -120h-184q-115 267 -196.5 443t-172.5 378q-21 47 -65.5 74t-90.5 33z" />
<glyph unicode="w" horiz-adv-x="1768" d="M-14 919v73h614v-73q-34 -3 -81 -16t-47 -35q0 -10 2.5 -17.5t8.5 -27.5q27 -78 74 -201.5t110 -287.5l222 658h198l253 -680q58 154 89.5 242.5t79.5 228.5q7 21 8.5 37.5t0.5 21.5q0 18 -18 32.5t-43 23.5t-48.5 14t-39.5 7v73h413v-73q-46 -7 -85 -30.5t-66 -87.5 q-70 -171 -112 -276t-118 -303q-16 -41 -38.5 -113t-35.5 -118h-195l-252 680l-236 -680h-193q-101 273 -159 423.5t-155 397.5q-18 47 -61.5 74t-89.5 33z" />
<glyph unicode="x" horiz-adv-x="1204" d="M3 0v73q81 17 129.5 54t65.5 57q73 78 123.5 129.5t135.5 144.5q-57 79 -138 193t-135 187q-27 36 -66 55.5t-101 25.5v73h611v-73q-33 0 -65 -4t-32 -14q0 -8 5 -20t13 -25q19 -32 60 -94t88 -130q45 55 75.5 90t78.5 99q18 24 22.5 36t4.5 15q0 17 -21.5 30.5 t-84.5 16.5v73h398v-73q-49 -8 -95 -33t-96 -78q-78 -81 -113.5 -118.5t-117.5 -124.5q46 -65 133 -189t150 -209q27 -38 60.5 -62t106.5 -32v-73h-625v73q49 3 82 8.5t33 22.5q0 8 -8.5 25t-21.5 38q-19 31 -65.5 98t-87.5 124q-58 -67 -97 -115t-82 -103q-15 -18 -21 -33 t-6 -18q0 -23 32.5 -35t77.5 -12v-73h-406z" />
<glyph unicode="y" horiz-adv-x="1151" d="M-28 919v73h612v-73q-34 -1 -78.5 -15t-44.5 -36q0 -8 3 -17.5t11 -27.5q34 -70 96.5 -194.5t145.5 -291.5q62 142 105.5 244.5t84.5 201.5q10 25 11.5 39.5t1.5 19.5q0 18 -17.5 31.5t-41.5 23.5q-25 10 -48 15t-38 7v73h413v-73q-45 -7 -87.5 -34t-70.5 -84 q-86 -182 -177 -387.5t-202 -444.5q-62 -134 -120 -214t-109 -123q-48 -40 -95 -58t-95 -18q-95 0 -153.5 53t-58.5 119q0 28 6.5 52t27.5 50q16 22 49.5 37.5t75.5 15.5q56 0 107 -39t106 -108q33 33 81.5 98.5t71.5 134.5q-119 250 -211 433.5t-206 409.5q-25 48 -67 74.5 t-89 32.5z" />
<glyph unicode="z" horiz-adv-x="1076" d="M44 0v69l574 832q-119 0 -214 -3t-150 -24q-19 -7 -50.5 -72.5t-49.5 -136.5h-71v327h930v-62l-576 -839q24 0 70 -1t88 -1q49 0 105 2.5t87 6.5q41 5 65.5 28t38.5 55q13 29 34 87.5t32 104.5h71v-373h-984z" />
<glyph unicode="{" horiz-adv-x="1024" d="M72 527v150q66 5 125.5 14.5t99.5 35.5q41 27 61 67t20 119q0 57 -6.5 120.5t-6.5 123.5q0 123 41 198t121 118q74 39 187.5 51.5t241.5 12.5v-87q-54 -4 -94 -10.5t-83 -32.5q-36 -22 -58.5 -67t-22.5 -119v-190q0 -104 -28.5 -175t-80.5 -114q-49 -41 -114 -64.5 t-141 -37.5v-76q72 -14 139.5 -38t115.5 -65q50 -42 79.5 -111.5t29.5 -176.5v-190q0 -74 22 -118.5t59 -68.5q36 -22 83 -31t94 -11v-87q-132 0 -241.5 12t-187.5 52t-120 115.5t-42 200.5q0 60 6.5 124.5t6.5 119.5q0 72 -20 116t-61 70t-99.5 35.5t-125.5 14.5z" />
<glyph unicode="|" horiz-adv-x="794" d="M312 -424v1947h171v-1947h-171z" />
<glyph unicode="}" horiz-adv-x="1024" d="M69 -246q47 2 95 11t82 31q37 24 59 68.5t22 118.5v190q0 107 29.5 176.5t79.5 111.5q48 41 115.5 65t139.5 38v76q-76 14 -141 38t-114 64q-52 43 -80.5 114t-28.5 175v190q0 74 -22.5 119t-58.5 67q-43 26 -83 32.5t-94 10.5v87q128 0 240.5 -11.5t188.5 -52.5 q80 -43 121 -118t41 -198q0 -60 -6.5 -123.5t-6.5 -120.5q0 -79 20 -119t61 -67q38 -25 98.5 -35t126.5 -15v-150q-67 -5 -125.5 -14.5t-99.5 -35.5t-61 -70t-20 -116q0 -55 6.5 -119.5t6.5 -124.5q0 -125 -42 -200.5t-120 -115.5t-187.5 -52t-241.5 -12v87z" />
<glyph unicode="~" d="M145 414q15 44 47.5 103t80.5 113q45 51 106.5 87t130.5 36q82 0 145.5 -28.5t115.5 -59.5q53 -32 104.5 -59.5t106.5 -27.5q70 0 119 52.5t90 146.5l104 -42q-20 -55 -53.5 -113t-74.5 -103q-51 -56 -110.5 -89.5t-126.5 -33.5q-76 0 -138.5 26.5t-120.5 60.5 q-46 28 -106 58t-107 30q-66 0 -115 -47.5t-94 -151.5z" />
<glyph unicode="&#xa1;" horiz-adv-x="771" d="M191 157q0 49 15 113.5t36 154.5t48 211.5t57 319.5h77q23 -153 51 -285.5t54 -246.5q26 -110 38.5 -164t12.5 -103q0 -77 -57.5 -131.5t-137.5 -54.5q-79 0 -136.5 54.5t-57.5 131.5zM193 1262q0 76 57.5 130.5t135.5 54.5q77 0 134.5 -54.5t57.5 -130.5t-57.5 -131.5 t-134.5 -55.5q-78 0 -135.5 55.5t-57.5 131.5z" />
<glyph unicode="&#xa2;" horiz-adv-x="1240" d="M130 498q0 104 41 195t111 161q72 72 177.5 117t237.5 50v255h99v-256q84 -8 145.5 -32.5t98.5 -55.5q38 -31 56.5 -65t18.5 -64q0 -67 -38.5 -109t-125.5 -42q-48 0 -92 27.5t-63 98.5v-657h1q110 0 181 50t121 143l77 -52q-57 -114 -156 -187.5t-224 -93.5v-280h-99 v278q-276 4 -421.5 142t-145.5 377zM487 510q0 -142 60 -240.5t150 -131.5v800q-42 -6 -80 -33.5t-67 -77.5q-28 -48 -45.5 -130t-17.5 -187z" />
<glyph unicode="&#xa3;" horiz-adv-x="1413" d="M124 0v188q93 31 140 71.5t66 94.5q20 54 21.5 118t1.5 154h-194v116h194q-3 41 -10.5 117.5t-7.5 123.5q0 207 146 342t384 135q168 0 294.5 -81.5t126.5 -202.5q0 -72 -43 -119t-121 -47q-79 0 -130 41t-51 112q0 53 19 107t29 84q-30 7 -60 10.5t-59 3.5 q-21 0 -48.5 -7t-62.5 -40q-30 -28 -51.5 -86t-21.5 -148q0 -63 5 -166t5 -179h389v-116h-389q-23 -141 -72.5 -212t-163.5 -133v-11h835v-270h-1171z" />
<glyph unicode="&#xa4;" d="M193 158l231 233q-25 39 -39 87t-14 93t13.5 92t39.5 91l-231 237l110 109l234 -234q38 24 87 39t95 15q45 0 92.5 -14t87.5 -38l234 232l112 -109l-231 -237q22 -39 37.5 -87t15.5 -96q0 -44 -15.5 -93.5t-37.5 -86.5l231 -235l-106 -111l-236 231q-48 -25 -89 -39 t-95 -14q-46 0 -94.5 15.5t-87.5 37.5l-238 -233zM514 571q0 -83 60 -144.5t145 -61.5q82 0 142.5 60t60.5 146q0 85 -60 146t-143 61q-85 0 -145 -60.5t-60 -146.5z" />
<glyph unicode="&#xa5;" horiz-adv-x="1500" d="M-16 1341v78h783v-78q-99 -2 -139.5 -14.5t-40.5 -35.5q0 -12 7.5 -32.5t43.5 -88.5q28 -54 91.5 -164.5t150.5 -256.5q208 330 255 410.5t47 106.5q0 35 -38 52.5t-128 22.5v78h506v-78q-33 -4 -57.5 -12t-55.5 -26q-43 -24 -76.5 -61.5t-65.5 -83.5 q-65 -95 -164.5 -252t-183.5 -291v-32h433v-116h-431v-250q0 -36 13.5 -63t51.5 -44q17 -7 72 -18.5t81 -13.5v-78h-779v78q28 2 80.5 8t73.5 14q37 16 50.5 42.5t13.5 64.5v260h-431v116h433v20q-70 122 -170.5 292t-161.5 270q-35 56 -68 89.5t-71 53.5q-30 15 -63.5 23 t-61.5 10z" />
<glyph unicode="&#xa6;" horiz-adv-x="794" d="M312 386h171v-810h-171v810zM312 723v800h171v-800h-171z" />
<glyph unicode="&#xa7;" horiz-adv-x="1154" d="M121 578q0 98 57 170t202 125q-112 46 -163 116.5t-51 159.5q0 131 130 218t337 87q99 0 170 -19t114 -50q41 -29 59 -64.5t18 -67.5q0 -53 -30.5 -89.5t-96.5 -36.5q-46 0 -76.5 23t-53.5 60q-19 30 -36.5 78.5t-29.5 80.5q-7 2 -15 2.5t-13 0.5q-94 0 -154.5 -37.5 t-60.5 -114.5q0 -50 20.5 -82t62.5 -59t103 -52t127 -52q150 -60 221 -136t71 -195q0 -106 -70.5 -181t-188.5 -114q102 -42 154 -112t52 -154q0 -135 -125.5 -225t-343.5 -90q-104 0 -173 19.5t-111 49.5t-59.5 65.5t-17.5 66.5q0 55 32.5 90.5t94.5 35.5q44 0 76 -23 t54 -60q21 -35 35.5 -74.5t30.5 -84.5q5 -1 14 -2t14 -1q94 0 155.5 36t61.5 116q0 48 -20 81t-59 59q-38 27 -101 53.5t-125 51.5q-151 61 -221.5 138.5t-70.5 192.5zM376 645q0 -53 25 -90.5t67 -65.5q46 -30 105.5 -55.5t119.5 -51.5q49 43 67 92t18 103q0 52 -23 88.5 t-66 65.5q-39 27 -108.5 57t-119.5 52q-37 -32 -61 -88.5t-24 -106.5z" />
<glyph unicode="&#xa8;" horiz-adv-x="1024" d="M105 1349q0 67 46.5 117.5t112.5 50.5q64 0 112 -50.5t48 -117.5t-48 -117.5t-112 -50.5q-65 0 -112 50t-47 118zM600 1349q0 67 47 117.5t113 50.5q64 0 111.5 -50.5t47.5 -117.5t-47.5 -117.5t-111.5 -50.5q-65 0 -112.5 50t-47.5 118z" />
<glyph unicode="&#xa9;" horiz-adv-x="1929" d="M81 602q0 366 259 624.5t625 258.5t625 -258.5t259 -624.5t-259 -624.5t-625 -258.5t-625 258.5t-259 624.5zM179 602q0 -330 228 -563t558 -233t558 233t228 563t-228 563t-558 233t-558 -233t-228 -563zM477 592q0 222 148.5 363t373.5 141q79 0 141.5 -20t104.5 -42 l35 51h65l4 -370h-69q-51 156 -112 229t-160 73q-118 0 -181 -107.5t-63 -293.5q0 -187 68 -289t199 -102q100 0 170.5 48t125.5 144l66 -36q-24 -56 -61 -105t-91 -85q-56 -37 -117 -56.5t-147 -19.5q-101 0 -193.5 32.5t-160.5 93.5q-68 62 -107 149.5t-39 201.5z" />
<glyph unicode="&#xaa;" horiz-adv-x="1130" d="M130 809q0 82 42.5 137t142.5 91q66 24 173.5 54t155.5 53v71q0 22 -3 53.5t-14 55.5q-11 25 -35 43t-66 18t-63.5 -8t-32.5 -16q4 -21 14.5 -47.5t10.5 -65.5q0 -42 -36.5 -71.5t-109.5 -29.5q-62 0 -101.5 30t-39.5 88q0 45 35.5 80t91.5 61q54 25 121.5 38t123.5 13 q81 0 148 -10t119 -38q52 -30 81.5 -81t29.5 -141q0 -96 -4 -214t-4 -161q0 -36 10.5 -56.5t35.5 -32.5q16 -6 45 -7t54 -1v-66q-32 -14 -87 -28t-104 -14q-99 0 -148 28.5t-67 85.5h-5q-23 -22 -49 -43.5t-60 -36.5q-39 -17 -74.5 -25.5t-100.5 -8.5q-96 0 -163 55.5 t-67 146.5zM418 852q0 -63 28.5 -87.5t70.5 -24.5q46 0 75 19t49 44l3 260q-45 -16 -89.5 -34.5t-72.5 -38.5q-30 -22 -47 -56t-17 -82z" />
<glyph unicode="&#xab;" horiz-adv-x="1250" d="M148 547q0 48 17.5 80t55.5 63q67 55 176 132.5t242 172.5l52 -43l-308 -409l308 -403l-52 -43q-122 86 -240.5 171t-177.5 133q-37 29 -55 63t-18 83zM587 547q0 48 17.5 80t55.5 63q67 55 176 132.5t242 172.5l52 -43l-308 -409l308 -403l-52 -43q-122 86 -240.5 171 t-177.5 133q-37 29 -55 63t-18 83z" />
<glyph unicode="&#xac;" d="M164 523v163h1102v-636h-170v473h-932z" />
<glyph unicode="&#xad;" horiz-adv-x="776" d="M85 435v221h606v-221h-606z" />
<glyph unicode="&#xae;" horiz-adv-x="1929" d="M81 602q0 366 259 624.5t625 258.5t625 -258.5t259 -624.5t-259 -624.5t-625 -258.5t-625 258.5t-259 624.5zM179 602q0 -330 228 -563t558 -233t558 233t228 563t-228 563t-558 233t-558 -233t-228 -563zM512 145v58q19 2 45.5 6.5t41.5 10.5q26 11 34 27.5t8 40.5v636 q0 25 -6 39.5t-36 27.5q-19 8 -45.5 15.5t-41.5 10.5v58h515q174 0 265 -54.5t91 -165.5q0 -104 -60.5 -162t-164.5 -88q38 -48 92 -118.5t135 -170.5q20 -26 55 -57.5t62 -41.5q12 -4 37 -9t35 -5v-58h-362q-96 147 -157.5 230.5t-146.5 185.5h-34v-269q0 -25 7.5 -40.5 t35.5 -27.5q12 -5 35.5 -12.5t41.5 -8.5v-58h-482zM874 629h48q99 0 150.5 50t51.5 157q0 93 -52 131t-148 38h-50v-376z" />
<glyph unicode="&#xaf;" d="M-5 1603v122h1450v-122h-1450z" />
<glyph unicode="&#xb0;" horiz-adv-x="860" d="M86 1129q0 143 97.5 237t245.5 94q152 0 248 -95.5t96 -235.5t-95.5 -235.5t-248.5 -95.5t-248 96.5t-95 234.5zM266 1132q0 -115 43 -179.5t123 -64.5q68 0 114.5 61.5t46.5 171.5q0 122 -45 185t-120 63q-77 0 -119.5 -65.5t-42.5 -171.5z" />
<glyph unicode="&#xb1;" d="M164 0v163h473v395h-473v163h473v473h165v-473h473v-163h-473v-395h473v-163h-1111z" />
<glyph unicode="&#xb2;" horiz-adv-x="1130" d="M177 490v141q39 41 132 109.5t156 114.5q40 29 84 70.5t64 74.5q28 44 42 82t14 104q0 89 -44.5 141t-120.5 52q-23 0 -45 -3.5t-44 -11.5q10 -28 21.5 -64t11.5 -81q0 -52 -38.5 -83.5t-98.5 -31.5q-56 0 -90.5 38.5t-34.5 93.5q0 91 109 156t262 65q184 0 292 -73.5 t108 -203.5q0 -86 -33 -146t-82 -100t-109.5 -69.5t-107.5 -48.5q-68 -29 -128 -54t-133 -57v-12h637v-203h-824z" />
<glyph unicode="&#xb3;" horiz-adv-x="1130" d="M145 673q0 56 33 94t92 38q60 0 98 -31.5t38 -83.5q0 -41 -11.5 -78.5t-21.5 -63.5q22 -8 49 -13t51 -5q42 0 86 11.5t71 34.5q32 27 49 66t17 107q0 92 -40.5 137.5t-137.5 45.5h-88v93h62q90 0 130.5 49t40.5 153q0 71 -40.5 111.5t-104.5 40.5q-23 0 -48.5 -3.5 t-47.5 -11.5q10 -28 21.5 -64t11.5 -81q0 -52 -36 -81.5t-96 -29.5q-56 0 -90.5 37.5t-34.5 92.5q0 92 110.5 155.5t262.5 63.5q105 0 176 -22.5t114 -60.5q40 -34 55.5 -73.5t15.5 -69.5q0 -32 -10 -67.5t-37 -65.5q-25 -29 -76.5 -57.5t-120.5 -41.5v-11q46 -2 99.5 -16 t93.5 -40q43 -28 70 -72.5t27 -111.5q0 -126 -127.5 -211t-324.5 -85q-157 0 -269 64.5t-112 156.5z" />
<glyph unicode="&#xb4;" horiz-adv-x="1024" d="M281 1139q88 117 136 186.5t83 118.5q43 61 82 82.5t97 21.5q48 0 86.5 -26t38.5 -62q0 -45 -20.5 -72.5t-65.5 -56.5q-49 -32 -155 -90.5t-240 -139.5z" />
<glyph unicode="&#xb5;" horiz-adv-x="1368" d="M106 -284q0 61 17.5 127t25.5 113q10 56 15.5 102.5t5.5 87.5v846h328v-661q0 -107 40.5 -154t116.5 -47q64 0 114.5 30.5t81.5 78.5v753h329v-777q0 -41 13 -67t43 -41q20 -9 54 -11t55 -2v-73q-44 -19 -104 -35t-127 -16q-112 0 -174.5 42t-79.5 124h-6 q-51 -86 -123.5 -126t-142.5 -40q-69 0 -118 14t-84 46h-11v-28q0 -41 31.5 -146.5t31.5 -147.5q0 -72 -53.5 -112t-119.5 -40q-68 0 -113.5 45.5t-45.5 114.5z" />
<glyph unicode="&#xb6;" horiz-adv-x="1124" d="M86 1021q0 165 112.5 281.5t309.5 116.5h567v-83h-111v-1552h-123v1552h-165v-1552h-123v844q-199 0 -333 98.5t-134 294.5z" />
<glyph unicode="&#xb7;" horiz-adv-x="692" d="M149 546q0 80 58.5 138.5t139.5 58.5q80 0 138.5 -59t58.5 -138t-58.5 -137t-138.5 -58q-81 0 -139.5 57.5t-58.5 137.5z" />
<glyph unicode="&#xb8;" horiz-adv-x="1024" d="M283 -366q50 0 98 0.5t78 7.5q35 7 54 22.5t19 49.5q0 40 -38 52t-100 12v239h86v-113q110 0 179 -37.5t69 -118.5q0 -57 -29 -96t-83 -59q-56 -21 -135.5 -29t-197.5 -8v78z" />
<glyph unicode="&#xb9;" horiz-adv-x="1130" d="M275 1236v84h40q62 0 111 13t84 35q30 19 52.5 41t35.5 40h134q-2 -41 -4.5 -105t-2.5 -121v-561q0 -28 11.5 -46t34.5 -29q18 -8 64 -16t70 -9v-72h-627v72q22 1 72.5 6.5t68.5 12.5q24 8 36.5 24.5t12.5 48.5v582h-193z" />
<glyph unicode="&#xba;" horiz-adv-x="1130" d="M89 1032q0 187 126 306t349 119q225 0 350.5 -119t125.5 -301q0 -188 -126.5 -309.5t-356.5 -121.5q-218 0 -343 121.5t-125 304.5zM393 1042q0 -86 5.5 -142.5t26.5 -111.5q18 -48 52 -76.5t88 -28.5q51 0 85 27.5t52 75.5q20 52 27 112t7 141q0 60 -6 124.5t-25 111.5 q-19 48 -52.5 76.5t-87.5 28.5q-57 0 -90.5 -30t-52.5 -79q-18 -48 -23.5 -110t-5.5 -119z" />
<glyph unicode="&#xbb;" horiz-adv-x="1250" d="M120 140l308 403l-308 409l52 43q133 -94 243.5 -173.5t174.5 -131.5q36 -28 54.5 -61.5t18.5 -81.5q0 -47 -17.5 -82t-55.5 -64q-62 -50 -173 -130t-245 -174zM559 140l308 403l-308 409l52 43q133 -94 243.5 -173.5t174.5 -131.5q36 -28 54.5 -61.5t18.5 -81.5 q0 -47 -17.5 -82t-55.5 -64q-62 -50 -173 -130t-245 -174z" />
<glyph unicode="&#xbc;" horiz-adv-x="2194" d="M145 1236v84h40q62 0 111 13t84 35q30 19 52.5 41t35.5 40h134q-2 -41 -4.5 -105t-2.5 -121v-561q0 -28 11.5 -46t34.5 -29q18 -8 64 -16t70 -9v-72h-627v72q22 1 72.5 6.5t68.5 12.5q24 8 36.5 24.5t12.5 48.5v582h-193zM606 0l816 1429h158l-818 -1429h-156zM1203 226 v139l502 600h208v-592h155v-147h-155v-246h-233v246h-477zM1326 373h354v421z" />
<glyph unicode="&#xbd;" horiz-adv-x="2194" d="M145 1236v84h40q62 0 111 13t84 35q30 19 52.5 41t35.5 40h134q-2 -41 -4.5 -105t-2.5 -121v-561q0 -28 11.5 -46t34.5 -29q18 -8 64 -16t70 -9v-72h-627v72q22 1 72.5 6.5t68.5 12.5q24 8 36.5 24.5t12.5 48.5v582h-193zM566 0l816 1429h158l-818 -1429h-156zM1292 0 v141q39 41 132 109.5t156 114.5q40 29 84 70.5t64 74.5q28 44 42 82t14 104q0 89 -44.5 141t-120.5 52q-23 0 -45 -3.5t-44 -11.5q10 -28 21.5 -64t11.5 -81q0 -52 -38.5 -83.5t-98.5 -31.5q-56 0 -90.5 38.5t-34.5 93.5q0 91 109 156t262 65q184 0 292 -73.5t108 -203.5 q0 -86 -33 -146t-82 -100t-109.5 -69.5t-107.5 -48.5q-68 -29 -128 -54t-133 -57v-12h637v-203h-824z" />
<glyph unicode="&#xbe;" horiz-adv-x="2194" d="M115 673q0 56 33 94t92 38q60 0 98 -31.5t38 -83.5q0 -41 -11.5 -78.5t-21.5 -63.5q22 -8 49 -13t51 -5q42 0 86 11.5t71 34.5q32 27 49 66t17 107q0 92 -40.5 137.5t-137.5 45.5h-88v93h62q90 0 130.5 49t40.5 153q0 71 -40.5 111.5t-104.5 40.5q-23 0 -48.5 -3.5 t-47.5 -11.5q10 -28 21.5 -64t11.5 -81q0 -52 -36 -81.5t-96 -29.5q-56 0 -90.5 37.5t-34.5 92.5q0 92 110.5 155.5t262.5 63.5q105 0 176 -22.5t114 -60.5q40 -34 55.5 -73.5t15.5 -69.5q0 -32 -10 -67.5t-37 -65.5q-25 -29 -76.5 -57.5t-120.5 -41.5v-11q46 -2 99.5 -16 t93.5 -40q43 -28 70 -72.5t27 -111.5q0 -126 -127.5 -211t-324.5 -85q-157 0 -269 64.5t-112 156.5zM703 0l816 1429h158l-818 -1429h-156zM1248 226v139l502 600h208v-592h155v-147h-155v-246h-233v246h-477zM1371 373h354v421z" />
<glyph unicode="&#xbf;" horiz-adv-x="1123" d="M108 386q0 194 131.5 320t374.5 149l6 136h89v-389q-140 -13 -224.5 -90t-84.5 -218q0 -110 58 -175t154 -65q39 0 75 9.5t60 25.5q-11 33 -24 80t-13 96q0 70 45.5 108.5t126.5 38.5q76 0 119.5 -48t43.5 -118q0 -115 -131 -195t-316 -80q-220 0 -355 115t-135 300z M468 1267q0 76 57.5 130.5t134.5 54.5q78 0 135.5 -54.5t57.5 -130.5t-57.5 -131.5t-135.5 -55.5q-77 0 -134.5 55.5t-57.5 131.5z" />
<glyph unicode="&#xc0;" horiz-adv-x="1553" d="M-56 0v78q33 2 74 10q24 5 32 7.5t14.5 5.5t19.5 11q31 18 39.5 25.5t30 33.5t27.5 36.5t20 46.5q116 281 232.5 563t257.5 622h200q196 -482 307 -762t189 -464q10 -22 14 -29t19 -25.5t22 -24t35 -22.5q28 -16 65 -24t67 -10v-78h-773v78q40 3 56 5.5t71 14t64 16.5 t9 22q0 8 -1.5 18t-8.5 27l-121 294h-490q-17 -41 -37.5 -96t-35.5 -98q-19 -56 -22.5 -81t-3.5 -35q0 -24 6 -31t42.5 -23.5t56.5 -20.5t105 -12v-78h-582zM428 1768q0 24 2.5 32.5t9.5 16t30 23.5q32 21 45 24.5t63 3.5q30 0 39 -2t34.5 -15t34.5 -20t39 -39 q46 -49 102.5 -107.5t162.5 -158.5l-33 -41q-122 53 -156 66t-114 41q-107 38 -158 60q-28 12 -38 17t-17 10.5t-21 20t-18 21t-5.5 15t-1.5 32.5zM455 574h409l-206 514z" />
<glyph unicode="&#xc1;" horiz-adv-x="1553" d="M-56 0v78q33 2 74 10q24 5 32 7.5t14.5 5.5t19.5 11q31 18 39.5 25.5t30 33.5t27.5 36.5t20 46.5q116 281 232.5 563t257.5 622h200q196 -482 307 -762t189 -464q10 -22 14 -29t19 -25.5t22 -24t35 -22.5q28 -16 65 -24t67 -10v-78h-773v78q40 3 56 5.5t71 14t64 16.5 t9 22q0 8 -1.5 18t-8.5 27l-121 294h-490q-17 -41 -37.5 -96t-35.5 -98q-19 -56 -22.5 -81t-3.5 -35q0 -24 6 -31t42.5 -23.5t56.5 -20.5t105 -12v-78h-582zM455 574h409l-206 514zM566 1526q102 97 155 151t110 115q28 30 37.5 37t35.5 21t35.5 16t38.5 2q49 0 62.5 -3.5 t45 -24t37 -29.5t5.5 -43q0 -32 -3 -40.5t-23 -28.5t-29 -26t-46 -21q-56 -23 -168 -64t-260 -103z" />
<glyph unicode="&#xc2;" horiz-adv-x="1553" d="M-56 0v78q33 2 74 10q24 5 32 7.5t14.5 5.5t19.5 11q31 18 39.5 25.5t30 33.5t27.5 36.5t20 46.5q116 281 232.5 563t257.5 622h200q196 -482 307 -762t189 -464q10 -22 14 -29t19 -25.5t22 -24t35 -22.5q28 -16 65 -24t67 -10v-78h-773v78q40 3 56 5.5t71 14t64 16.5 t9 22q0 8 -1.5 18t-8.5 27l-121 294h-490q-17 -41 -37.5 -96t-35.5 -98q-19 -56 -22.5 -81t-3.5 -35q0 -24 6 -31t42.5 -23.5t56.5 -20.5t105 -12v-78h-582zM410 1513q104 128 155.5 189t85.5 105q13 17 18.5 22.5t12 10t24.5 12.5q23 12 33.5 14t51.5 2t51.5 -2t30 -12 t26 -15.5t25.5 -27.5q41 -48 82.5 -98t164.5 -200l-33 -29l-351 203l-344 -203zM455 574h409l-206 514z" />
<glyph unicode="&#xc3;" horiz-adv-x="1553" d="M-56 0v78q33 2 74 10q24 5 32 7.5t14.5 5.5t19.5 11q31 18 39.5 25.5t30 33.5t27.5 36.5t20 46.5q116 281 232.5 563t257.5 622h200q196 -482 307 -762t189 -464q10 -22 14 -29t19 -25.5t22 -24t35 -22.5q28 -16 65 -24t67 -10v-78h-773v78q40 3 56 5.5t71 14t64 16.5 t9 22q0 8 -1.5 18t-8.5 27l-121 294h-490q-17 -41 -37.5 -96t-35.5 -98q-19 -56 -22.5 -81t-3.5 -35q0 -24 6 -31t42.5 -23.5t56.5 -20.5t105 -12v-78h-582zM337 1536q14 40 40 90q19 38 27.5 50t37.5 49q26 32 36.5 41.5t49.5 34.5t52 29t52 4q50 0 64.5 -2t53.5 -14 q29 -10 40 -14t21.5 -8.5t34.5 -16.5q46 -23 76 -39q16 -8 23 -10.5t16 -3.5t33 -1q29 0 40.5 0.5t23.5 1.5t18 7l11.5 11.5t16.5 19.5q22 30 28 43t22 60l77 -24q-9 -32 -14 -44t-25 -52q-13 -24 -17 -32.5t-12.5 -20.5t-14.5 -19t-23 -26q-33 -37 -44.5 -46.5t-45.5 -31.5 q-35 -22 -48 -25.5t-59 -3.5q-40 0 -55 1t-28 4t-42.5 12.5t-40.5 13.5t-20.5 8.5t-31.5 15.5q-34 18 -76 37q-31 14 -40.5 16.5t-37.5 2.5q-34 0 -43.5 -4.5t-32 -30t-31.5 -39.5t-40 -74zM455 574h409l-206 514z" />
<glyph unicode="&#xc4;" horiz-adv-x="1553" d="M-56 0v78q33 2 74 10q24 5 32 7.5t14.5 5.5t19.5 11q31 18 39.5 25.5t30 33.5t27.5 36.5t20 46.5q116 281 232.5 563t257.5 622h200q196 -482 307 -762t189 -464q10 -22 14 -29t19 -25.5t22 -24t35 -22.5q28 -16 65 -24t67 -10v-78h-773v78q40 3 56 5.5t71 14t64 16.5 t9 22q0 8 -1.5 18t-8.5 27l-121 294h-490q-17 -41 -37.5 -96t-35.5 -98q-19 -56 -22.5 -81t-3.5 -35q0 -24 6 -31t42.5 -23.5t56.5 -20.5t105 -12v-78h-582zM364 1690q0 50 6 65t40 53q26 28 37.5 36t25 11t50.5 3q48 0 62 -6.5t50 -43.5q27 -29 35 -41t10.5 -26t2.5 -51 q0 -50 -6 -65t-42 -52.5t-50 -44t-62 -6.5q-49 0 -63 6t-49 44t-41 52.5t-6 65.5zM455 574h409l-206 514zM900 1690q0 50 6 65t41 52.5t49 44t64 6.5q36 0 49 -3t24.5 -11t38.5 -36q35 -38 41 -53t6 -65q0 -37 -2.5 -51t-10.5 -26t-34 -41q-36 -37 -50 -43.5t-62 -6.5 q-49 0 -63 6.5t-49 43.5q-27 28 -35 40t-10.5 26t-2.5 52z" />
<glyph unicode="&#xc5;" horiz-adv-x="1553" d="M-56 0v78q33 2 74.5 10.5t65.5 23.5q41 24 69.5 59t47.5 83q105 255 238.5 577.5t242.5 585.5q-85 22 -134 79.5t-49 140.5q0 102 82 166.5t202 64.5q123 0 203.5 -63t80.5 -168q0 -78 -46 -135.5t-124 -81.5q165 -406 295.5 -731t194.5 -476q13 -30 33 -54.5t57 -46.5 q28 -16 65 -24t67 -10v-78h-773v78q54 4 127 19.5t73 38.5q0 8 -1.5 18t-8.5 27l-121 294h-490q-17 -41 -37.5 -96t-35.5 -98q-19 -56 -22.5 -81t-3.5 -35q0 -32 48.5 -54.5t161.5 -32.5v-78h-582zM455 574h409l-206 514zM651 1635q0 -72 34 -118.5t98 -46.5t98 45.5 t34 119.5q0 71 -33.5 117t-98.5 46q-63 0 -97.5 -44t-34.5 -119z" />
<glyph unicode="&#xc6;" horiz-adv-x="2191" d="M-94 0v78q25 2 69 11.5t66 22.5q45 24 78.5 59.5t60.5 82.5q146 248 300.5 511t321.5 551q-29 9 -85.5 15.5t-98.5 9.5v78h1423v-362h-76q-29 81 -100 164t-141 98q-30 6 -83.5 8t-88.5 2h-186v-548h126q55 0 100 13t82 50q23 23 46.5 81t30.5 101h76v-592h-76 q-6 42 -30.5 105.5t-46.5 87.5q-33 36 -78 49.5t-104 13.5h-126v-409q0 -130 39 -160t183 -30q141 0 204 13t89 38q48 49 108 149.5t79 150.5h73l-27 -442h-1310v78q28 2 76 8t68 14q34 14 49 38t15 65v388h-496q-78 -136 -120 -212t-55 -99q-37 -69 -42 -92.5t-5 -29.5 q0 -21 21.5 -36t50.5 -23q32 -9 64 -14t58 -7v-78h-582zM571 688h441v641h-77z" />
<glyph unicode="&#xc7;" horiz-adv-x="1465" d="M71 696q0 165 57.5 305.5t161.5 243.5q102 101 245 156.5t306 55.5q118 0 215 -28.5t164 -64.5l62 55h87l9 -518h-88q-75 237 -180 348t-256 111q-188 0 -286 -165.5t-98 -464.5q0 -169 33.5 -288.5t87.5 -192.5q58 -76 137 -110.5t175 -34.5q140 0 249.5 75t199.5 229 l86 -52q-43 -88 -98 -157.5t-127 -119.5q-79 -55 -174.5 -85t-227.5 -30v-60q110 0 179 -37.5t69 -118.5q0 -57 -29 -96t-83 -59q-56 -21 -135.5 -29t-197.5 -8v78q50 0 98 0.5t78 7.5q35 7 54 22.5t19 49.5q0 40 -38 52t-100 12v190q-129 12 -242 61t-199 131 q-99 94 -156 232t-57 304z" />
<glyph unicode="&#xc8;" horiz-adv-x="1477" d="M69 0v78q28 2 76 8t68 14q29 12 35 17t16 23q6 11 8 15t3.5 12t1.5 13.5v22.5v1001q0 27 -1.5 34.5t-9.5 25t-15 23t-38 19.5q-26 12 -73 22t-71 13v78h1258v-362h-76q-22 61 -34.5 81.5t-65.5 82.5t-70.5 74.5t-70.5 23.5q-22 5 -32.5 6t-51.5 3q-53 1 -88 1h-206v-548 h146q41 0 53.5 1.5t46.5 11.5t44 16t38 34q17 17 23 27t23.5 54t21.5 56.5t9 44.5h76v-592h-76q-5 32 -8.5 45t-22.5 61q-13 35 -18.5 47t-10.5 19.5t-17 20.5q-25 27 -34.5 33t-43.5 16.5t-47 12t-57 1.5h-146v-409q0 -48 1 -60.5t8.5 -41t12 -35.5t23.5 -22q9 -7 13 -9.5 t8.5 -5.5t11.5 -4.5t13.5 -2.5t22.5 -3q43 -6 118 -6q35 0 84 1t86 6q42 5 78 15q21 6 28 8.5t12 6t15 14.5q36 37 49.5 55.5t58.5 94t55 94t24 56.5h73l-27 -442h-1331zM418 1768q0 32 5.5 41t36.5 30.5t44.5 25t63.5 3.5q30 0 39 -2t34.5 -15t34.5 -20t39 -39 q46 -49 102.5 -107.5t162.5 -158.5l-33 -41q-122 53 -156 66t-114 41q-107 38 -158 60q-38 16 -47.5 22t-28.5 26q-14 14 -18 20.5t-5.5 15t-1.5 32.5z" />
<glyph unicode="&#xc9;" horiz-adv-x="1477" d="M69 0v78q28 2 76 8t68 14q29 12 35 17t16 23q6 11 8 15t3.5 12t1.5 13.5v22.5v1001q0 27 -1.5 34.5t-9.5 25t-15 23t-38 19.5q-26 12 -73 22t-71 13v78h1258v-362h-76q-22 61 -34.5 81.5t-65.5 82.5t-70.5 74.5t-70.5 23.5q-22 5 -32.5 6t-51.5 3q-53 1 -88 1h-206v-548 h146q41 0 53.5 1.5t46.5 11.5t44 16t38 34q17 17 23 27t23.5 54t21.5 56.5t9 44.5h76v-592h-76q-5 32 -8.5 45t-22.5 61q-13 35 -18.5 47t-10.5 19.5t-17 20.5q-25 27 -34.5 33t-43.5 16.5t-47 12t-57 1.5h-146v-409q0 -48 1 -60.5t8.5 -41t12 -35.5t23.5 -22q9 -7 13 -9.5 t8.5 -5.5t11.5 -4.5t13.5 -2.5t22.5 -3q43 -6 118 -6q35 0 84 1t86 6q42 5 78 15q21 6 28 8.5t12 6t15 14.5q36 37 49.5 55.5t58.5 94t55 94t24 56.5h73l-27 -442h-1331zM501 1526q102 97 155 151t110 115q29 30 38 37t35 21t35.5 16t38.5 2q49 0 62.5 -3.5t45 -24t37 -29.5 t5.5 -43q0 -32 -3.5 -40.5t-22.5 -28.5t-28.5 -26t-46.5 -21q-56 -23 -168 -64t-260 -103z" />
<glyph unicode="&#xca;" horiz-adv-x="1477" d="M69 0v78q28 2 76 8t68 14q29 12 35 17t16 23q6 11 8 15t3.5 12t1.5 13.5v22.5v1001q0 27 -1.5 34.5t-9.5 25t-15 23t-38 19.5q-26 12 -73 22t-71 13v78h1258v-362h-76q-22 61 -34.5 81.5t-65.5 82.5t-70.5 74.5t-70.5 23.5q-22 5 -32.5 6t-51.5 3q-53 1 -88 1h-206v-548 h146q41 0 53.5 1.5t46.5 11.5t44 16t38 34q17 17 23 27t23.5 54t21.5 56.5t9 44.5h76v-592h-76q-5 32 -8.5 45t-22.5 61q-13 35 -18.5 47t-10.5 19.5t-17 20.5q-25 27 -34.5 33t-43.5 16.5t-47 12t-57 1.5h-146v-409q0 -48 1 -60.5t8.5 -41t12 -35.5t23.5 -22q9 -7 13 -9.5 t8.5 -5.5t11.5 -4.5t13.5 -2.5t22.5 -3q43 -6 118 -6q35 0 84 1t86 6q42 5 78 15q21 6 28 8.5t12 6t15 14.5q36 37 49.5 55.5t58.5 94t55 94t24 56.5h73l-27 -442h-1331zM389 1513q104 128 155.5 189t85.5 105q17 23 24 28.5t30.5 17t34.5 13.5t51 2q31 0 41.5 -1t18 -3 t22.5 -10q19 -10 25.5 -15.5t25.5 -27.5q41 -48 82.5 -98t164.5 -200l-33 -29l-351 203l-344 -203z" />
<glyph unicode="&#xcb;" horiz-adv-x="1477" d="M69 0v78q28 2 76 8t68 14q29 12 35 17t16 23q6 11 8 15t3.5 12t1.5 13.5v22.5v1001q0 27 -1.5 34.5t-9.5 25t-15 23t-38 19.5q-26 12 -73 22t-71 13v78h1258v-362h-76q-22 61 -34.5 81.5t-65.5 82.5t-70.5 74.5t-70.5 23.5q-22 5 -32.5 6t-51.5 3q-53 1 -88 1h-206v-548 h146q41 0 53.5 1.5t46.5 11.5t44 16t38 34q17 17 23 27t23.5 54t21.5 56.5t9 44.5h76v-592h-76q-5 32 -8.5 45t-22.5 61q-13 35 -18.5 47t-10.5 19.5t-17 20.5q-25 27 -34.5 33t-43.5 16.5t-47 12t-57 1.5h-146v-409q0 -48 1 -60.5t8.5 -41t12 -35.5t23.5 -22q9 -7 13 -9.5 t8.5 -5.5t11.5 -4.5t13.5 -2.5t22.5 -3q43 -6 118 -6q35 0 84 1t86 6q42 5 78 15q21 6 28 8.5t12 6t15 14.5q36 37 49.5 55.5t58.5 94t55 94t24 56.5h73l-27 -442h-1331zM352 1700q0 50 6 65t40 53q26 28 37.5 36t25 11t50.5 3q48 0 62 -6.5t50 -44t42 -52.5t6 -65t-6 -65 t-42 -52.5t-50 -44t-62 -6.5q-49 0 -63 6t-49 44t-41 52.5t-6 65.5zM888 1700q0 50 6 65t41 52.5t49 44t64 6.5q48 0 62 -6.5t49.5 -44t41.5 -52.5t6 -65t-6 -65t-41.5 -52.5t-49.5 -44t-62 -6.5q-49 0 -63 6.5t-49.5 43.5t-41.5 52t-6 66z" />
<glyph unicode="&#xcc;" horiz-adv-x="913" d="M63 0v78q27 2 79 6q40 3 49 4.5t24 7.5q28 11 34 16t16.5 23.5t12 26.5t1.5 36v1006q0 26 -1.5 33t-11.5 27t-16.5 25t-34.5 17q-24 10 -71 20.5t-81 14.5v78h787v-78q-30 -3 -75 -8.5t-76 -15.5q-29 -10 -35.5 -15t-16.5 -25.5t-11.5 -28.5t-1.5 -34v-1005 q0 -27 1.5 -34.5t12 -27t16.5 -24.5t35 -17q21 -9 69.5 -17.5t81.5 -10.5v-78h-787zM198 1768q0 32 5 41t37 30.5t45 25t63 3.5q30 0 39 -2t34.5 -15t34.5 -20t39 -39q46 -49 102.5 -107.5t162.5 -158.5l-33 -41q-122 53 -156 66t-114 41q-107 38 -158 60q-38 16 -47.5 22 t-28.5 26q-14 14 -18 20.5t-5.5 15t-1.5 32.5z" />
<glyph unicode="&#xcd;" horiz-adv-x="913" d="M63 0v78q27 2 79 6q40 3 49 4.5t24 7.5q28 11 34 16t16.5 23.5t12 26.5t1.5 36v1006q0 26 -1.5 33t-11.5 27t-16.5 25t-34.5 17q-24 10 -71 20.5t-81 14.5v78h787v-78q-30 -3 -75 -8.5t-76 -15.5q-29 -10 -35.5 -15t-16.5 -25.5t-11.5 -28.5t-1.5 -34v-1005 q0 -27 1.5 -34.5t12 -27t16.5 -24.5t35 -17q21 -9 69.5 -17.5t81.5 -10.5v-78h-787zM166 1526q102 97 155 151t110 115q29 30 38 37t35 21t35.5 16t38.5 2q36 0 49.5 -1.5t24 -6t34.5 -20.5q31 -20 36.5 -29t5.5 -43q0 -32 -3 -40.5t-23 -28.5q-19 -20 -28.5 -26t-46.5 -21 q-56 -23 -168 -64t-260 -103z" />
<glyph unicode="&#xce;" horiz-adv-x="913" d="M63 0v78q27 2 79 6q40 3 49 4.5t24 7.5q28 11 34 16t16.5 23.5t12 26.5t1.5 36v1006q0 26 -1.5 33t-11.5 27t-16.5 25t-34.5 17q-24 10 -71 20.5t-81 14.5v78h787v-78q-30 -3 -75 -8.5t-76 -15.5q-29 -10 -35.5 -15t-16.5 -25.5t-11.5 -28.5t-1.5 -34v-1005 q0 -27 1.5 -34.5t12 -27t16.5 -24.5t35 -17q21 -9 69.5 -17.5t81.5 -10.5v-78h-787zM76 1513q104 128 155.5 189t85.5 105q17 23 24 28.5t30.5 17t34 13.5t51.5 2h28t16.5 -0.5t13.5 -2.5t9.5 -4t13.5 -7q15 -8 21 -12t11.5 -9.5t19.5 -21.5q41 -48 82.5 -98t164.5 -200 l-33 -29l-351 203l-344 -203z" />
<glyph unicode="&#xcf;" horiz-adv-x="913" d="M49 1700q0 67 46.5 117.5t112.5 50.5q64 0 112 -50.5t48 -117.5t-48 -117.5t-112 -50.5q-65 0 -112 50t-47 118zM63 0v78q27 2 79 6q40 3 49 4.5t24 7.5q28 11 34 16t16.5 23.5t12 26.5t1.5 36v1006q0 26 -1.5 33t-11.5 27t-16.5 25t-34.5 17q-24 10 -71 20.5t-81 14.5 v78h787v-78q-30 -3 -75 -8.5t-76 -15.5q-29 -10 -35.5 -15t-16.5 -25.5t-11.5 -28.5t-1.5 -34v-1005q0 -27 1.5 -34.5t12 -27t16.5 -24.5t35 -17q21 -9 69.5 -17.5t81.5 -10.5v-78h-787zM544 1700q0 67 47 117.5t113 50.5q64 0 111.5 -50.5t47.5 -117.5t-47.5 -117.5 t-111.5 -50.5q-65 0 -112.5 50t-47.5 118z" />
<glyph unicode="&#xd0;" horiz-adv-x="1708" d="M67 1341v78h755q121 0 259 -31t266 -115q130 -85 210 -226.5t80 -346.5q0 -180 -71.5 -313.5t-189.5 -218.5q-120 -85 -272.5 -126.5t-319.5 -41.5h-715v78q32 1 80 6t64 12q36 15 50 40.5t14 61.5v488h-195v105h195v413q0 34 -13 61.5t-51 44.5t-80.5 23t-65.5 8z M631 247q0 -36 9.5 -63.5t32.5 -47.5q24 -22 57.5 -33.5t87.5 -11.5q113 0 194 42t131 123q49 80 71.5 190.5t22.5 254.5q0 141 -30 257t-88 198t-144.5 127t-196.5 45q-35 0 -80 -1.5t-67 -2.5v-533h305v-105h-305v-439z" />
<glyph unicode="&#xd1;" horiz-adv-x="1719" d="M29 1339v80h534l776 -960v537q0 96 -2 120t-15 70.5t-19.5 58t-34.5 34.5q-22 17 -32.5 22t-53.5 17q-57 17 -92 23v78h609v-78q-28 -3 -80 -11q-39 -6 -51 -11t-43 -28l-22 -16.5t-12.5 -16t-9 -21.5t-9.5 -39q-11 -49 -13 -73t-2 -119v-1014h-178l-884 1097v-666 q0 -93 2 -116.5t14.5 -72t19 -60t34.5 -34.5q20 -16 31 -21t55 -18q59 -17 94 -23v-78h-610v78q39 3 89 14q38 9 48.5 13.5t36.5 22.5q29 22 36 33t17.5 54.5t12.5 68t2 128.5v672q0 28 -1 38.5t-3.5 21t-10.5 34.5q-12 34 -18 43.5t-31 33.5q-26 26 -36 32.5t-44.5 21 t-47.5 18.5t-56 12zM438 1536q14 40 40 90q20 38 28 50t37 49q26 32 36.5 41.5t49.5 34.5t52 29t52 4q49 0 64 -2t54 -14q29 -10 40 -14t21.5 -8.5t34.5 -16.5q46 -23 75 -39q23 -11 32 -13t41 -2q29 0 40.5 0.5t23.5 1.5t18 7l11.5 11.5t15.5 19.5q23 30 29 43t22 60 l77 -24q-9 -32 -14 -44t-26 -52q-12 -24 -16 -32.5t-12.5 -20.5t-14.5 -19t-23 -26q-33 -37 -44 -46.5t-46 -31.5q-34 -22 -47.5 -25.5t-59.5 -3.5q-54 0 -69.5 2t-55.5 15q-30 10 -41 14t-20.5 8.5t-31.5 15.5q-34 18 -75 37q-32 14 -41.5 16.5t-37.5 2.5q-34 0 -43.5 -4.5 t-32 -30t-31.5 -39.5t-40 -74z" />
<glyph unicode="&#xd2;" horiz-adv-x="1679" d="M71 694q0 130 7.5 169.5t51.5 146.5q27 61 36.5 83t29.5 52.5t36.5 46.5t61.5 60q77 74 107.5 93t137 59.5t144 47t157.5 6.5q119 0 156.5 -6.5t142 -45.5t134.5 -57t107 -88q46 -42 62 -57t37 -44t31 -50.5t36 -80.5q47 -102 54.5 -140.5t7.5 -169.5q0 -116 -6.5 -153 t-45.5 -142t-57.5 -135t-92.5 -106q-77 -79 -107.5 -99.5t-134.5 -64t-145.5 -51t-185.5 -7.5q-116 0 -152.5 6.5t-140.5 44.5t-134 56.5t-109 91.5q-78 71 -98.5 100t-66.5 131t-53.5 140t-7.5 163zM471 704q0 -100 2.5 -131.5t18.5 -119.5q11 -66 17 -90.5t14.5 -45.5 t32.5 -70q25 -49 36.5 -67t25.5 -31t52 -41q52 -37 73 -43t97 -6q74 0 95.5 6.5t74.5 43.5t67 54.5t46 82.5q34 68 42 94t23 112t17.5 118.5t2.5 141.5q0 92 -2 122t-16 118q-9 64 -14.5 88.5t-13.5 46t-31 72.5q-32 68 -46.5 86.5t-67.5 59.5t-75 48t-102 7 q-136 0 -170 -21.5t-105 -150t-82.5 -189t-11.5 -295.5zM545 1768q0 32 5 41t37 30.5t45.5 25t62.5 3.5q30 0 39 -2t34.5 -15t34.5 -20t39 -39q46 -49 102.5 -107.5t162.5 -158.5l-33 -41q-122 53 -156 66t-114 41q-107 38 -158 60q-38 16 -47.5 22t-28.5 26 q-14 14 -18 20.5t-5.5 15t-1.5 32.5z" />
<glyph unicode="&#xd3;" horiz-adv-x="1679" d="M71 694q0 130 7.5 169.5t51.5 146.5q27 61 36.5 83t29.5 52.5t36.5 46.5t61.5 60q77 74 107.5 93t137 59.5t144 47t157.5 6.5q119 0 156.5 -6.5t142 -45.5t134.5 -57t107 -88q46 -42 62 -57t37 -44t31 -50.5t36 -80.5q47 -102 54.5 -140.5t7.5 -169.5q0 -116 -6.5 -153 t-45.5 -142t-57.5 -135t-92.5 -106q-77 -79 -107.5 -99.5t-134.5 -64t-145.5 -51t-185.5 -7.5q-116 0 -152.5 6.5t-140.5 44.5t-134 56.5t-109 91.5q-78 71 -98.5 100t-66.5 131t-53.5 140t-7.5 163zM471 704q0 -100 2.5 -131.5t18.5 -119.5q11 -66 17 -90.5t14.5 -45.5 t32.5 -70q25 -49 36.5 -67t25.5 -31t52 -41q52 -37 73 -43t97 -6q74 0 95.5 6.5t74.5 43.5t67 54.5t46 82.5q34 68 42 94t23 112t17.5 118.5t2.5 141.5q0 92 -2 122t-16 118q-9 64 -14.5 88.5t-13.5 46t-31 72.5q-32 68 -46.5 86.5t-67.5 59.5t-75 48t-102 7 q-136 0 -170 -21.5t-105 -150t-82.5 -189t-11.5 -295.5zM536 1526q102 97 155 151t110 115q29 30 38 37t35 21t35.5 16t38.5 2q49 0 62.5 -3.5t45 -24t37 -29.5t5.5 -43q0 -32 -3 -40.5t-23 -28.5t-29 -26t-46 -21q-56 -23 -168 -64t-260 -103z" />
<glyph unicode="&#xd4;" horiz-adv-x="1679" d="M71 694q0 130 7.5 169.5t51.5 146.5q27 61 36.5 83t29.5 52.5t36.5 46.5t61.5 60q77 74 107.5 93t137 59.5t144 47t157.5 6.5q119 0 156.5 -6.5t142 -45.5t134.5 -57t107 -88q46 -42 62 -57t37 -44t31 -50.5t36 -80.5q47 -102 54.5 -140.5t7.5 -169.5q0 -116 -6.5 -153 t-45.5 -142t-57.5 -135t-92.5 -106q-77 -79 -107.5 -99.5t-134.5 -64t-145.5 -51t-185.5 -7.5q-116 0 -152.5 6.5t-140.5 44.5t-134 56.5t-109 91.5q-78 71 -98.5 100t-66.5 131t-53.5 140t-7.5 163zM459 1513q104 128 155.5 189t85.5 105q17 23 24 28.5t30.5 17t34.5 13.5 t51 2q41 0 51.5 -2t30 -12t26 -15.5t25.5 -27.5q41 -48 82.5 -98t164.5 -200l-33 -29l-351 203l-344 -203zM471 704q0 -100 2.5 -131.5t18.5 -119.5q11 -66 17 -90.5t14.5 -45.5t32.5 -70q25 -49 36.5 -67t25.5 -31t52 -41q52 -37 73 -43t97 -6q74 0 95.5 6.5t74.5 43.5 t67 54.5t46 82.5q34 68 42 94t23 112t17.5 118.5t2.5 141.5q0 92 -2 122t-16 118q-9 64 -14.5 88.5t-13.5 46t-31 72.5q-32 68 -46.5 86.5t-67.5 59.5t-75 48t-102 7q-136 0 -170 -21.5t-105 -150t-82.5 -189t-11.5 -295.5z" />
<glyph unicode="&#xd5;" horiz-adv-x="1679" d="M71 694q0 130 7.5 169.5t51.5 146.5q27 61 36.5 83t29.5 52.5t36.5 46.5t61.5 60q77 74 107.5 93t137 59.5t144 47t157.5 6.5q119 0 156.5 -6.5t142 -45.5t134.5 -57t107 -88q46 -42 62 -57t37 -44t31 -50.5t36 -80.5q47 -102 54.5 -140.5t7.5 -169.5q0 -116 -6.5 -153 t-45.5 -142t-57.5 -135t-92.5 -106q-77 -79 -107.5 -99.5t-134.5 -64t-145.5 -51t-185.5 -7.5q-116 0 -152.5 6.5t-140.5 44.5t-134 56.5t-109 91.5q-78 71 -98.5 100t-66.5 131t-53.5 140t-7.5 163zM392 1536q14 40 40 90q20 38 28 50t37 49q25 32 36 41.5t50 34.5t52 29 t52 4q49 0 64 -2t54 -14q29 -10 40 -14t21.5 -8.5t34.5 -16.5q46 -23 75 -39q23 -11 32 -13t41 -2q29 0 40.5 0.5t23.5 1.5t18 7l11.5 11.5t15.5 19.5q23 30 29 43t22 60l77 -24q-9 -32 -14 -44t-26 -52q-12 -24 -16 -32.5t-12.5 -20.5t-14.5 -19t-23 -26q-33 -37 -44 -46.5 t-46 -31.5t-48 -25.5t-59 -3.5q-54 0 -69.5 2t-55.5 15q-30 10 -41 14t-20.5 8.5t-31.5 15.5q-34 18 -75 37q-32 14 -41.5 16.5t-37.5 2.5q-34 0 -43.5 -4.5t-32 -30t-31.5 -39.5t-40 -74zM471 704q0 -100 2.5 -131.5t18.5 -119.5q11 -66 17 -90.5t14.5 -45.5t32.5 -70 q25 -49 36.5 -67t25.5 -31t52 -41q52 -37 73 -43t97 -6q74 0 95.5 6.5t74.5 43.5t67 54.5t46 82.5q34 68 42 94t23 112t17.5 118.5t2.5 141.5q0 92 -2 122t-16 118q-9 64 -14.5 88.5t-13.5 46t-31 72.5q-32 68 -46.5 86.5t-67.5 59.5t-75 48t-102 7q-136 0 -170 -21.5 t-105 -150t-82.5 -189t-11.5 -295.5z" />
<glyph unicode="&#xd6;" horiz-adv-x="1679" d="M71 694q0 130 7.5 169.5t51.5 146.5q27 61 36.5 83t29.5 52.5t36.5 46.5t61.5 60q77 74 107.5 93t137 59.5t144 47t157.5 6.5q119 0 156.5 -6.5t142 -45.5t134.5 -57t107 -88q46 -42 62 -57t37 -44t31 -50.5t36 -80.5q47 -102 54.5 -140.5t7.5 -169.5q0 -116 -6.5 -153 t-45.5 -142t-57.5 -135t-92.5 -106q-77 -79 -107.5 -99.5t-134.5 -64t-145.5 -51t-185.5 -7.5q-116 0 -152.5 6.5t-140.5 44.5t-134 56.5t-109 91.5q-78 71 -98.5 100t-66.5 131t-53.5 140t-7.5 163zM412 1700q0 37 2.5 51t10.5 26t33.5 40.5t37 36.5t25 11t50.5 3 q48 0 62 -6.5t50 -44t42 -52.5t6 -65t-6 -65t-42 -52.5t-50 -44t-62 -6.5q-49 0 -63 6t-49 44t-41 52.5t-6 65.5zM471 704q0 -100 2.5 -131.5t18.5 -119.5q11 -66 17 -90.5t14.5 -45.5t32.5 -70q25 -49 36.5 -67t25.5 -31t52 -41q52 -37 73 -43t97 -6q74 0 95.5 6.5 t74.5 43.5t67 54.5t46 82.5q34 68 42 94t23 112t17.5 118.5t2.5 141.5q0 92 -2 122t-16 118q-9 64 -14.5 88.5t-13.5 46t-31 72.5q-32 68 -46.5 86.5t-67.5 59.5t-75 48t-102 7q-136 0 -170 -21.5t-105 -150t-82.5 -189t-11.5 -295.5zM948 1700q0 50 6 65t41 52.5t49 44 t64 6.5q36 0 49 -3t24.5 -11t38.5 -36q35 -38 41 -53t6 -65t-6 -65t-41.5 -52.5t-49.5 -44t-62 -6.5q-49 0 -63 6.5t-49.5 43.5t-41.5 52t-6 66z" />
<glyph unicode="&#xd7;" d="M221 192l385 383l-385 382l115 116l383 -385l383 385l115 -116l-385 -382l385 -383l-115 -115l-383 384l-383 -384z" />
<glyph unicode="&#xd8;" horiz-adv-x="1679" d="M71 694q0 174 59.5 315.5t163.5 242.5q103 99 244.5 152.5t301.5 53.5q140 0 264.5 -39.5t225.5 -117.5l195 208l74 -68l-195 -205q94 -94 149 -226.5t55 -290.5q0 -155 -52 -295t-150 -241q-103 -105 -242 -163.5t-331 -58.5q-135 0 -259 39.5t-224 115.5l-197 -211 l-74 68l197 207q-96 96 -150.5 228t-54.5 286zM463 704q0 -92 5.5 -159.5t22.5 -142.5l665 721q-43 109 -119 174.5t-197 65.5q-185 0 -281 -171.5t-96 -487.5zM524 294q45 -115 123 -176t193 -61q99 0 172.5 50t116.5 136q47 92 67 207.5t20 261.5q0 76 -6 155t-21 147z " />
<glyph unicode="&#xd9;" horiz-adv-x="1707" d="M57 1343v76h744v-76q-32 -2 -65 -7.5t-67 -16.5q-29 -9 -35 -14t-16 -26t-11.5 -29t-1.5 -34v-716v-89.5t4 -61.5t7 -46t17 -34t25.5 -35.5t39.5 -40.5t39.5 -41t33 -26t30.5 -17.5t39.5 -7.5t52 -4h75.5h74t51.5 4.5t39.5 8t31.5 19.5t34.5 29t42 45t42 45t27 38t18 35 t7.5 45.5t4.5 60.5v88v481q0 96 -2 120t-15.5 71.5t-20 59t-33.5 32.5q-20 16 -31 21.5t-60 18.5q-64 18 -90 22v78h615v-78q-29 -3 -83 -13q-41 -8 -52.5 -13t-39.5 -24t-35 -30t-18.5 -60t-13.5 -73t-2 -122v-528v-77.5t-3 -59t-4.5 -47.5t-12.5 -37.5t-18 -34.5 t-29.5 -33t-38 -39t-52.5 -47t-52.5 -47t-43.5 -34.5t-37 -26.5t-38 -16t-41.5 -11t-53 -4t-66 -3h-86.5h-101t-76.5 3t-60.5 4t-47 10.5t-43 15.5t-40 25.5t-46 33t-55 45.5t-55.5 45.5t-40 38t-30.5 32.5t-18.5 35t-13 38.5t-5 49t-3.5 62v81.5v726q0 26 -1.5 33.5 t-12 26.5t-16.5 24.5t-35 20.5q-26 13 -64 21t-62 11zM558 1742.5v25.5q0 32 5.5 41t36.5 31q23 15 34 20t24 6.5t50 1.5q30 0 39 -2t34.5 -15t34.5 -20t39 -39q46 -49 102.5 -107.5t162.5 -158.5l-33 -41q-122 53 -156 66t-114 41q-107 38 -158 60q-38 16 -47.5 22 t-28.5 26q-11 11 -14.5 15t-7 12.5t-3.5 15z" />
<glyph unicode="&#xda;" horiz-adv-x="1707" d="M57 1343v76h744v-76q-32 -2 -65 -7.5t-67 -16.5q-29 -9 -35 -14t-16 -26t-11.5 -29t-1.5 -34v-716v-89.5t4 -61.5t7 -46t17 -34t25.5 -35.5t39.5 -40.5t39.5 -41t33 -26t30.5 -17.5t39.5 -7.5t52 -4h75.5h74t51.5 4.5t39.5 8t31.5 19.5t34.5 29t42 45t42 45t27 38t18 35 t7.5 45.5t4.5 60.5v88v481q0 96 -2 120t-15.5 71.5t-20 59t-33.5 32.5q-20 16 -31 21.5t-60 18.5q-64 18 -90 22v78h615v-78q-29 -3 -83 -13q-41 -8 -52.5 -13t-39.5 -24t-35 -30t-18.5 -60t-13.5 -73t-2 -122v-528v-77.5t-3 -59t-4.5 -47.5t-12.5 -37.5t-18 -34.5 t-29.5 -33t-38 -39t-52.5 -47t-52.5 -47t-43.5 -34.5t-37 -26.5t-38 -16t-41.5 -11t-53 -4t-66 -3h-86.5h-101t-76.5 3t-60.5 4t-47 10.5t-43 15.5t-40 25.5t-46 33t-55 45.5t-55.5 45.5t-40 38t-30.5 32.5t-18.5 35t-13 38.5t-5 49t-3.5 62v81.5v726q0 26 -1.5 33.5 t-12 26.5t-16.5 24.5t-35 20.5q-26 13 -64 21t-62 11zM636 1526q102 97 155 151t110 115q28 30 37.5 37t35.5 21t35.5 16t38.5 2q36 0 49.5 -1.5t24 -6t34.5 -20.5q31 -20 36.5 -29t5.5 -43q0 -32 -3 -40.5t-23 -28.5t-29 -26t-46 -21q-56 -23 -168 -64t-260 -103z" />
<glyph unicode="&#xdb;" horiz-adv-x="1707" d="M57 1343v76h744v-76q-32 -2 -65 -7.5t-67 -16.5q-29 -9 -35 -14t-16 -26t-11.5 -29t-1.5 -34v-716v-89.5t4 -61.5t7 -46t17 -34t25.5 -35.5t39.5 -40.5t39.5 -41t33 -26t30.5 -17.5t39.5 -7.5t52 -4h75.5h74t51.5 4.5t39.5 8t31.5 19.5t34.5 29t42 45t42 45t27 38t18 35 t7.5 45.5t4.5 60.5v88v481q0 96 -2 120t-15.5 71.5t-20 59t-33.5 32.5q-20 16 -31 21.5t-60 18.5q-64 18 -90 22v78h615v-78q-29 -3 -83 -13q-41 -8 -52.5 -13t-39.5 -24t-35 -30t-18.5 -60t-13.5 -73t-2 -122v-528v-77.5t-3 -59t-4.5 -47.5t-12.5 -37.5t-18 -34.5 t-29.5 -33t-38 -39t-52.5 -47t-52.5 -47t-43.5 -34.5t-37 -26.5t-38 -16t-41.5 -11t-53 -4t-66 -3h-86.5h-101t-76.5 3t-60.5 4t-47 10.5t-43 15.5t-40 25.5t-46 33t-55 45.5t-55.5 45.5t-40 38t-30.5 32.5t-18.5 35t-13 38.5t-5 49t-3.5 62v81.5v726q0 26 -1.5 33.5 t-12 26.5t-16.5 24.5t-35 20.5q-26 13 -64 21t-62 11zM549 1513q104 128 155.5 189t85.5 105q17 23 24 28.5t30.5 17t34.5 13.5t51 2q41 0 51.5 -2t30 -12t26 -15.5t25.5 -27.5q41 -48 82.5 -98t164.5 -200l-33 -29l-351 203l-344 -203z" />
<glyph unicode="&#xdc;" horiz-adv-x="1707" d="M57 1343v76h744v-76q-32 -2 -65 -7.5t-67 -16.5q-29 -9 -35 -14t-16 -26t-11.5 -29t-1.5 -34v-716v-89.5t4 -61.5t7 -46t17 -34t25.5 -35.5t39.5 -40.5t39.5 -41t33 -26t30.5 -17.5t39.5 -7.5t52 -4h75.5h74t51.5 4.5t39.5 8t31.5 19.5t34.5 29t42 45t42 45t27 38t18 35 t7.5 45.5t4.5 60.5v88v481q0 96 -2 120t-15.5 71.5t-20 59t-33.5 32.5q-20 16 -31 21.5t-60 18.5q-64 18 -90 22v78h615v-78q-29 -3 -83 -13q-41 -8 -52.5 -13t-39.5 -24t-35 -30t-18.5 -60t-13.5 -73t-2 -122v-528v-77.5t-3 -59t-4.5 -47.5t-12.5 -37.5t-18 -34.5 t-29.5 -33t-38 -39t-52.5 -47t-52.5 -47t-43.5 -34.5t-37 -26.5t-38 -16t-41.5 -11t-53 -4t-66 -3h-86.5h-101t-76.5 3t-60.5 4t-47 10.5t-43 15.5t-40 25.5t-46 33t-55 45.5t-55.5 45.5t-40 38t-30.5 32.5t-18.5 35t-13 38.5t-5 49t-3.5 62v81.5v726q0 26 -1.5 33.5 t-12 26.5t-16.5 24.5t-35 20.5q-26 13 -64 21t-62 11zM482 1700q0 50 6 65t40 53q21 22 28.5 29.5t21.5 13.5t24 6.5t39 0.5q48 0 62 -6.5t50 -44t42 -52.5t6 -65t-6 -65t-42 -53q-27 -28 -38.5 -36t-24.5 -11t-49 -3q-49 0 -63 6t-49 44t-41 52.5t-6 65.5zM1018 1700 q0 50 6 65t41 52.5t49 44t64 6.5q48 0 62 -6.5t49.5 -44t41.5 -52.5t6 -65t-6 -65t-41.5 -52.5t-49.5 -44t-62 -6.5q-49 0 -63 6.5t-49 43.5q-27 28 -35 40t-10.5 26t-2.5 52z" />
<glyph unicode="&#xdd;" horiz-adv-x="1499" d="M-61 1341v78h813v-78q-49 -1 -66 -1.5t-36 -2.5t-25.5 -4t-23.5 -7q-29 -10 -34 -14t-5 -21q0 -11 14.5 -44t51.5 -102q34 -65 99.5 -179t157.5 -267q190 301 261 421q53 89 62 107.5t9 38.5q0 26 -5 32.5t-36.5 19.5t-48 16t-86.5 7v78h526v-78q-36 -4 -66 -13t-57 -25 q-32 -18 -41.5 -25.5t-35 -36t-33.5 -39t-32 -44.5q-65 -95 -136.5 -206.5t-155.5 -245.5q-41 -64 -49.5 -80t-18 -50.5t-11 -54t-1.5 -103.5v-201q0 -27 1.5 -35t12 -28t16.5 -25.5t35 -18.5q17 -7 72 -18.5t81 -13.5v-78h-791v78q28 2 81 8q39 4 48 6t25 8q16 7 22 9.5 t12 8t8.5 9.5t8.5 15q10 20 11.5 28t1.5 37v250q0 33 -1 58t-7 42q-7 19 -24 48.5t-44 76.5q-77 135 -149 256t-137 227q-26 41 -34.5 52t-34 36.5t-34.5 32t-36 22.5q-20 11 -28.5 14t-37.5 9q-38 8 -69 10zM561 1526q102 97 155 151t110 115q28 30 37.5 37t35.5 21 t35.5 16t38.5 2q36 0 49.5 -1.5t24 -6t33.5 -20.5q32 -20 37.5 -29t5.5 -43q0 -32 -3.5 -40.5t-22.5 -28.5t-28.5 -26t-46.5 -21q-56 -23 -168 -64t-260 -103z" />
<glyph unicode="&#xde;" horiz-adv-x="1450" d="M69 0v78q28 2 75.5 8t68.5 14q33 14 48.5 37.5t15.5 65.5v1001q0 36 -11 60.5t-53 41.5q-28 12 -71.5 22.5t-72.5 12.5v78h763v-78q-26 -1 -71 -11t-64 -18q-36 -15 -50.5 -42t-14.5 -60v-66h220q276 0 411.5 -93.5t135.5 -298.5q0 -108 -51 -189t-135 -134 q-81 -51 -183 -77t-205 -26h-193v-117q0 -37 14.5 -62t50.5 -41q20 -8 62.5 -17.5t72.5 -10.5v-78h-763zM632 419h52q164 0 244 79.5t80 236.5q0 160 -66 238t-231 78h-79v-632z" />
<glyph unicode="&#xdf;" horiz-adv-x="1347" d="M37 0v73q30 3 51 4.5t43 10.5q28 11 41.5 33t13.5 61v835q0 167 43.5 261.5t118.5 151.5q82 65 182 92.5t204 27.5q86 0 167.5 -18.5t146.5 -56.5q64 -38 103.5 -97.5t39.5 -140.5q0 -66 -26 -118.5t-65 -87.5q-43 -39 -93 -62t-100 -32v-9q57 -11 122.5 -40.5 t121.5 -83.5q56 -53 90.5 -126.5t34.5 -179.5q0 -218 -130 -363.5t-349 -145.5q-61 0 -115.5 5.5t-83.5 11.5v86q16 -3 33.5 -5t30.5 -2q121 0 188 112t67 307q0 174 -63 276t-188 102h-28v93h37q35 0 73 15.5t65 46.5q34 38 50 88.5t16 114.5q0 113 -43 170t-118 57 q-116 0 -158.5 -94.5t-42.5 -275.5v-1097h-480z" />
<glyph unicode="&#xe0;" horiz-adv-x="1220" d="M79 219q0 49 2.5 62.5t16 48t19.5 44.5t31 36q23 24 31.5 30.5t38.5 22.5q39 21 86 39q67 25 94.5 33.5t121.5 35t117.5 34.5t66.5 29v96q0 25 -4 66q-3 31 -5 39.5t-12 29.5q-11 24 -16 30.5t-28 23.5t-32.5 19.5t-46.5 2.5q-33 0 -42 -1.5t-32 -11.5q-29 -12 -47 -25 q3 -20 17 -61q10 -31 12 -40.5t2 -38.5q0 -17 -9 -43q-7 -19 -10 -24t-16 -16q-17 -15 -23.5 -19t-28 -12t-32.5 -9.5t-55 -1.5q-63 0 -79 5t-48 35.5t-37.5 43.5t-5.5 62q0 42 5.5 54.5t39 46t47 42.5t61.5 31q47 22 65 28t80 18.5t81 14.5t71 2q73 0 95 -1.5t83 -10 t79 -14.5t67 -33q47 -26 59 -39t39.5 -62.5t32 -71.5t4.5 -102q0 -113 -4.5 -268t-4.5 -204q0 -34 1.5 -43t12.5 -28q5 -11 7.5 -15t7.5 -9t9.5 -7t16.5 -8q13 -6 19.5 -7t33.5 -2q37 -2 67 -2v-73q-44 -19 -104 -35q-45 -12 -61 -14t-66 -2q-92 0 -114.5 4.5t-66.5 32 t-53.5 40.5t-25.5 64h-6q-34 -34 -66 -58q-23 -18 -31.5 -23t-35.5 -18q-35 -16 -46.5 -20.5t-44 -12t-47.5 -9t-74 -1.5q-24 0 -35 0.5t-27 0.5t-23.5 2t-17.5 3t-17.5 6t-15 8t-18.5 12.5t-19 15.5t-25 21q-61 51 -71.5 73.5t-10.5 107.5zM298 1460q0 20 2 27.5t8.5 14 t27.5 20.5q29 20 40 23t47 3q46 0 58 -2.5t39 -16t37.5 -24.5t44.5 -61q33 -48 89.5 -127.5t129.5 -177.5l-42 -38q-92 56 -124.5 75t-56 32t-70.5 38q-63 33 -81 43.5t-63 41.5q-35 24 -43.5 31t-23 25.5t-17 27.5t-2.5 45zM424 273q0 -58 4.5 -72.5t31 -40.5t37.5 -30.5 t50 -4.5q41 0 52.5 3t38 19.5t34.5 23.5t28 32l4 339q-56 -19 -111 -44q-41 -18 -52.5 -24.5t-37.5 -26.5q-28 -21 -35 -30t-23 -41.5t-18.5 -45.5t-2.5 -57z" />
<glyph unicode="&#xe1;" horiz-adv-x="1220" d="M79 219q0 49 2.5 62.5t16 48t19.5 44.5t31 36q23 24 31.5 30.5t38.5 22.5q39 21 86 39q67 25 94.5 33.5t121.5 35t117.5 34.5t66.5 29v96q0 25 -4 66q-3 31 -5 39.5t-12 29.5q-11 24 -16 30.5t-28 23.5t-32.5 19.5t-46.5 2.5q-33 0 -42 -1.5t-32 -11.5q-29 -12 -47 -25 q3 -20 17 -61q10 -31 12 -40.5t2 -38.5q0 -17 -9 -43q-7 -19 -10 -24t-16 -16q-17 -15 -23.5 -19t-28 -12t-32.5 -9.5t-55 -1.5q-63 0 -79 5t-48 35.5t-37.5 43.5t-5.5 62q0 42 5.5 54.5t39 46t47 42.5t61.5 31q47 22 65 28t80 18.5t81 14.5t71 2q73 0 95 -1.5t83 -10 t79 -14.5t67 -33q47 -26 59 -39t39.5 -62.5t32 -71.5t4.5 -102q0 -113 -4.5 -268t-4.5 -204q0 -34 1.5 -43t12.5 -28q5 -11 7.5 -15t7.5 -9t9.5 -7t16.5 -8q13 -6 19.5 -7t33.5 -2q37 -2 67 -2v-73q-44 -19 -104 -35q-45 -12 -61 -14t-66 -2q-92 0 -114.5 4.5t-66.5 32 t-53.5 40.5t-25.5 64h-6q-34 -34 -66 -58q-23 -18 -31.5 -23t-35.5 -18q-35 -16 -46.5 -20.5t-44 -12t-47.5 -9t-74 -1.5q-24 0 -35 0.5t-27 0.5t-23.5 2t-17.5 3t-17.5 6t-15 8t-18.5 12.5t-19 15.5t-25 21q-61 51 -71.5 73.5t-10.5 107.5zM361 1139q88 117 136 186.5 t83 118.5q43 61 82 82.5t97 21.5q48 0 86.5 -26t38.5 -62q0 -45 -20.5 -72.5t-65.5 -56.5q-49 -32 -155 -90.5t-240 -139.5zM424 273q0 -58 4.5 -72.5t31 -40.5t37.5 -30.5t50 -4.5q41 0 52.5 3t38 19.5t34.5 23.5t28 32l4 339q-56 -19 -111 -44q-41 -18 -52.5 -24.5 t-37.5 -26.5q-28 -21 -35 -30t-23 -41.5t-18.5 -45.5t-2.5 -57z" />
<glyph unicode="&#xe2;" horiz-adv-x="1220" d="M79 219q0 49 2.5 62.5t16 48t19.5 44.5t31 36q23 24 31.5 30.5t38.5 22.5q39 21 86 39q67 25 94.5 33.5t121.5 35t117.5 34.5t66.5 29v96q0 25 -4 66q-3 31 -5 39.5t-12 29.5q-11 24 -16 30.5t-28 23.5t-32.5 19.5t-46.5 2.5q-33 0 -42 -1.5t-32 -11.5q-29 -12 -47 -25 q3 -20 17 -61q10 -31 12 -40.5t2 -38.5q0 -17 -9 -43q-7 -19 -10 -24t-16 -16q-17 -15 -23.5 -19t-28 -12t-32.5 -9.5t-55 -1.5q-63 0 -79 5t-48 35.5t-37.5 43.5t-5.5 62q0 42 5.5 54.5t39 46t47 42.5t61.5 31q47 22 65 28t80 18.5t81 14.5t71 2q73 0 95 -1.5t83 -10 t79 -14.5t67 -33q47 -26 59 -39t39.5 -62.5t32 -71.5t4.5 -102q0 -113 -4.5 -268t-4.5 -204q0 -34 1.5 -43t12.5 -28q5 -11 7.5 -15t7.5 -9t9.5 -7t16.5 -8q13 -6 19.5 -7t33.5 -2q37 -2 67 -2v-73q-44 -19 -104 -35q-45 -12 -61 -14t-66 -2q-92 0 -114.5 4.5t-66.5 32 t-53.5 40.5t-25.5 64h-6q-34 -34 -66 -58q-23 -18 -31.5 -23t-35.5 -18q-35 -16 -46.5 -20.5t-44 -12t-47.5 -9t-74 -1.5q-24 0 -35 0.5t-27 0.5t-23.5 2t-17.5 3t-17.5 6t-15 8t-18.5 12.5t-19 15.5t-25 21q-61 51 -71.5 73.5t-10.5 107.5zM222 1132q100 161 139 224 t92 131q17 23 24 29t30.5 17t34 13t51.5 2t51.5 -1.5t30.5 -12.5q20 -10 26.5 -15.5t24.5 -27.5q35 -43 47.5 -60.5t52.5 -80.5q54 -84 137 -218l-54 -29l-320 254l-316 -254zM424 273q0 -58 4.5 -72.5t31 -40.5t37.5 -30.5t50 -4.5q41 0 52.5 3t38 19.5t34.5 23.5t28 32 l4 339q-56 -19 -111 -44q-41 -18 -52.5 -24.5t-37.5 -26.5q-28 -21 -35 -30t-23 -41.5t-18.5 -45.5t-2.5 -57z" />
<glyph unicode="&#xe3;" horiz-adv-x="1220" d="M79 219q0 49 2.5 62.5t16 48t19.5 44.5t31 36q23 24 31.5 30.5t38.5 22.5q39 21 86 39q67 25 94.5 33.5t121.5 35t117.5 34.5t66.5 29v96q0 25 -4 66q-3 31 -5 39.5t-12 29.5q-11 24 -16 30.5t-28 23.5t-32.5 19.5t-46.5 2.5q-33 0 -42 -1.5t-32 -11.5q-29 -12 -47 -25 q3 -20 17 -61q10 -31 12 -40.5t2 -38.5q0 -17 -9 -43q-7 -19 -10 -24t-16 -16q-17 -15 -23.5 -19t-28 -12t-32.5 -9.5t-55 -1.5q-63 0 -79 5t-48 35.5t-37.5 43.5t-5.5 62q0 42 5.5 54.5t39 46t47 42.5t61.5 31q47 22 65 28t80 18.5t81 14.5t71 2q73 0 95 -1.5t83 -10 t79 -14.5t67 -33q47 -26 59 -39t39.5 -62.5t32 -71.5t4.5 -102q0 -113 -4.5 -268t-4.5 -204q0 -34 1.5 -43t12.5 -28q5 -11 7.5 -15t7.5 -9t9.5 -7t16.5 -8q13 -6 19.5 -7t33.5 -2q37 -2 67 -2v-73q-44 -19 -104 -35q-45 -12 -61 -14t-66 -2q-92 0 -114.5 4.5t-66.5 32 t-53.5 40.5t-25.5 64h-6q-34 -34 -66 -58q-23 -18 -31.5 -23t-35.5 -18q-35 -16 -46.5 -20.5t-44 -12t-47.5 -9t-74 -1.5q-24 0 -35 0.5t-27 0.5t-23.5 2t-17.5 3t-17.5 6t-15 8t-18.5 12.5t-19 15.5t-25 21q-61 51 -71.5 73.5t-10.5 107.5zM145 1171q14 40 40 90 q19 37 27.5 49.5t37.5 49.5q26 32 36.5 41.5t49.5 34.5t52 29t52 4q50 0 64.5 -2t53.5 -14.5t51 -17.5t45 -21l76 -38q22 -12 31 -14t41 -2q29 0 40.5 0.5t23.5 1.5t18 7l11.5 11.5t16.5 19.5q16 22 22 32.5t11 23t17 47.5l77 -24q-9 -32 -14 -44t-25 -53 q-16 -29 -22.5 -40.5t-14.5 -22t-30 -34.5q-33 -37 -44.5 -46.5t-45.5 -31.5t-47.5 -25.5t-59.5 -3.5q-54 0 -69.5 2t-56 15.5t-52 18t-40.5 19.5q-34 18 -76 37q-31 14 -40.5 16.5t-37.5 2.5q-34 0 -43.5 -4.5t-32 -30t-31.5 -39.5t-40 -74zM424 273q0 -58 4.5 -72.5 t31 -40.5t37.5 -30.5t50 -4.5q41 0 52.5 3t38 19.5t34.5 23.5t28 32l4 339q-56 -19 -111 -44q-41 -18 -52.5 -24.5t-37.5 -26.5q-28 -21 -35 -30t-23 -41.5t-18.5 -45.5t-2.5 -57z" />
<glyph unicode="&#xe4;" horiz-adv-x="1220" d="M79 219q0 49 2.5 62.5t16 48t19.5 44.5t31 36q23 24 31.5 30.5t38.5 22.5q39 21 86 39q67 25 94.5 33.5t121.5 35t117.5 34.5t66.5 29v96q0 25 -4 66q-3 31 -5 39.5t-12 29.5q-11 24 -16 30.5t-28 23.5t-32.5 19.5t-46.5 2.5q-33 0 -42 -1.5t-32 -11.5q-29 -12 -47 -25 q3 -20 17 -61q10 -31 12 -40.5t2 -38.5q0 -17 -9 -43q-7 -19 -10 -24t-16 -16q-17 -15 -23.5 -19t-28 -12t-32.5 -9.5t-55 -1.5q-63 0 -79 5t-48 35.5t-37.5 43.5t-5.5 62q0 42 5.5 54.5t39 46t47 42.5t61.5 31q47 22 65 28t80 18.5t81 14.5t71 2q73 0 95 -1.5t83 -10 t79 -14.5t67 -33q47 -26 59 -39t39.5 -62.5t32 -71.5t4.5 -102q0 -113 -4.5 -268t-4.5 -204q0 -34 1.5 -43t12.5 -28q5 -11 7.5 -15t7.5 -9t9.5 -7t16.5 -8q13 -6 19.5 -7t33.5 -2q37 -2 67 -2v-73q-44 -19 -104 -35q-45 -12 -61 -14t-66 -2q-92 0 -114.5 4.5t-66.5 32 t-53.5 40.5t-25.5 64h-6q-34 -34 -66 -58q-23 -18 -31.5 -23t-35.5 -18q-35 -16 -46.5 -20.5t-44 -12t-47.5 -9t-74 -1.5q-24 0 -35 0.5t-27 0.5t-23.5 2t-17.5 3t-17.5 6t-15 8t-18.5 12.5t-19 15.5t-25 21q-61 51 -71.5 73.5t-10.5 107.5zM185 1349q0 67 46.5 117.5 t112.5 50.5q64 0 112 -50.5t48 -117.5t-48 -117.5t-112 -50.5q-65 0 -112 50t-47 118zM424 273q0 -58 4.5 -72.5t31 -40.5t37.5 -30.5t50 -4.5q41 0 52.5 3t38 19.5t34.5 23.5t28 32l4 339q-56 -19 -111 -44q-41 -18 -52.5 -24.5t-37.5 -26.5q-28 -21 -35 -30t-23 -41.5 t-18.5 -45.5t-2.5 -57zM680 1349q0 67 47 117.5t113 50.5q64 0 111.5 -50.5t47.5 -117.5t-47.5 -117.5t-111.5 -50.5q-65 0 -112.5 50t-47.5 118z" />
<glyph unicode="&#xe5;" horiz-adv-x="1220" d="M79 219q0 49 2.5 62.5t16 48t19.5 44.5t31 36q23 24 31.5 30.5t38.5 22.5q39 21 86 39q67 25 94.5 33.5t121.5 35t117.5 34.5t66.5 29v96q0 25 -4 66q-3 31 -5 39.5t-12 29.5q-11 24 -16 30.5t-28 23.5t-32.5 19.5t-46.5 2.5q-33 0 -42 -1.5t-32 -11.5q-29 -12 -47 -25 q3 -20 17 -61q10 -31 12 -40.5t2 -38.5q0 -17 -9 -43q-7 -19 -10 -24t-16 -16q-17 -15 -23.5 -19t-28 -12t-32.5 -9.5t-55 -1.5q-63 0 -79 5t-48 35.5t-37.5 43.5t-5.5 62q0 42 5.5 54.5t39 46t47 42.5t61.5 31q47 22 65 28t80 18.5t81 14.5t71 2q73 0 95 -1.5t83 -10 t79 -14.5t67 -33q47 -26 59 -39t39.5 -62.5t32 -71.5t4.5 -102q0 -113 -4.5 -268t-4.5 -204q0 -34 1.5 -43t12.5 -28q5 -11 7.5 -15t7.5 -9t9.5 -7t16.5 -8q13 -6 19.5 -7t33.5 -2q37 -2 67 -2v-73q-44 -19 -104 -35q-45 -12 -61 -14t-66 -2q-92 0 -114.5 4.5t-66.5 32 t-53.5 40.5t-25.5 64h-6q-34 -34 -66 -58q-23 -18 -31.5 -23t-35.5 -18q-35 -16 -46.5 -20.5t-44 -12t-47.5 -9t-74 -1.5q-24 0 -35 0.5t-27 0.5t-23.5 2t-17.5 3t-17.5 6t-15 8t-18.5 12.5t-19 15.5t-25 21q-61 51 -71.5 73.5t-10.5 107.5zM312 1327q0 79 10 100.5t70 68.5 q22 16 31.5 23t22 16t22.5 11.5t19.5 6.5t27.5 4t31.5 0.5t44.5 0.5q32 0 45.5 -0.5t31.5 -0.5t27.5 -4t20 -6.5t22.5 -11.5t21.5 -16t30.5 -23q60 -47 70 -68t10 -101q0 -78 -9.5 -99t-67.5 -69t-83 -56t-119 -8q-34 0 -48.5 0.5t-33.5 0.5t-28.5 4t-20.5 6.5t-22.5 11.5 t-20.5 15.5t-29 22.5q-57 47 -66.5 68t-9.5 103zM424 273q0 -58 4.5 -72.5t31 -40.5t37.5 -30.5t50 -4.5q41 0 52.5 3t38 19.5t34.5 23.5t28 32l4 339q-56 -19 -111 -44q-41 -18 -52.5 -24.5t-37.5 -26.5q-28 -21 -35 -30t-23 -41.5t-18.5 -45.5t-2.5 -57zM459 1326 q0 -54 4.5 -68.5t29.5 -48t37.5 -39t60.5 -5.5q36 0 48.5 2.5t21.5 9.5t28 31q26 33 30 47.5t4 70.5q0 53 -4 67.5t-29 48.5q-13 17 -18.5 23t-12 12.5t-16.5 8t-19.5 2t-32.5 0.5q-47 0 -59.5 -5.5t-38 -38t-30 -47.5t-4.5 -71z" />
<glyph unicode="&#xe6;" horiz-adv-x="1756" d="M79 219q0 65 18 110.5t51 80.5q30 32 69.5 53t86.5 39q95 35 223 69.5t176 48.5v110q0 25 -4 66t-17 69q-14 32 -43.5 54t-78.5 22q-44 0 -73.5 -12.5t-47.5 -25.5q3 -20 17 -61t14 -79q0 -17 -9 -42.5t-26 -40.5q-23 -20 -51.5 -31t-87.5 -11q-84 0 -127 40t-43 106 q0 54 42 98t111 76q63 30 145 46.5t152 16.5q109 0 194.5 -22t153.5 -77q53 38 131.5 68.5t159.5 30.5q130 0 222 -34.5t148 -93.5q56 -58 81 -135t25 -162v-65h-658q0 -204 77 -311.5t245 -107.5q92 0 163.5 53t123.5 130l76 -56q-70 -120 -194.5 -195.5t-283.5 -75.5 q-163 0 -278.5 50.5t-181.5 141.5h-6q-26 -30 -61.5 -64t-83.5 -62q-52 -30 -111.5 -47.5t-148.5 -17.5q-124 0 -207 68.5t-83 181.5zM424 276q0 -81 35.5 -116t87.5 -35q55 0 95 24t61 54v329q-60 -16 -111 -35.5t-89 -47.5q-36 -27 -57.5 -70.5t-21.5 -102.5zM1033 615 l308 4q0 52 -5.5 119t-17.5 104q-15 44 -43 71t-75 27q-79 0 -121 -79.5t-46 -245.5z" />
<glyph unicode="&#xe7;" horiz-adv-x="1088" d="M71 498q0 104 41.5 198t112.5 165q73 73 181.5 116.5t239.5 43.5q184 0 291 -69.5t107 -187.5q0 -72 -38 -116t-131 -44q-75 0 -125.5 36t-50.5 94q0 49 16 97t19 73q-11 18 -28 27.5t-53 9.5q-45 0 -82 -21t-69 -74q-31 -50 -49.5 -134t-18.5 -202q0 -178 83.5 -287 t199.5 -109q111 0 176.5 49.5t116.5 140.5l75 -52q-31 -61 -74 -111.5t-103 -89.5q-63 -41 -133 -61t-144 -20v-66q110 0 179 -37.5t69 -118.5q0 -57 -29 -96t-83 -59q-56 -21 -135.5 -29t-197.5 -8v78q50 0 98 1t78 7q35 7 54 22.5t19 49.5q0 40 -38 52t-100 12v196 q-108 9 -193.5 48t-143.5 97q-69 71 -103 168t-34 211z" />
<glyph unicode="&#xe8;" horiz-adv-x="1171" d="M71 500q0 76 4.5 100.5t33 95t41.5 91t65 75.5q51 53 72.5 67.5t99 47.5t106.5 38.5t125 5.5q105 0 134 -4t96 -30q67 -25 86 -37t63 -57q43 -43 53.5 -59.5t30 -75t22.5 -78.5t3 -84v-65h-676v-87.5t3.5 -60t6 -45.5t14.5 -35.5t21.5 -38t33.5 -45.5t33.5 -46t29 -29 t27.5 -19.5t37.5 -8t50 -4.5h73.5q70 0 91.5 6.5t77.5 45.5q33 22 44.5 30t27.5 24.5t24.5 28.5t31.5 47l76 -55q-19 -32 -28 -44t-19 -23.5t-38 -39.5q-37 -38 -51 -49t-61 -38q-50 -29 -67 -36t-68.5 -21.5t-71 -17t-86.5 -2.5q-111 0 -143 5.5t-112.5 36.5t-103 45.5 t-75 67.5t-65.5 74t-38.5 93.5t-30 98.5t-4.5 111zM302 1460q0 27 5 35t33 27q22 14 31 18.5t19 6t37 1.5q46 0 58 -2.5t39 -16t37.5 -24.5t44.5 -61q33 -48 89.5 -127.5t129.5 -177.5l-42 -38q-92 56 -124.5 75t-56 32t-70.5 38q-63 33 -81 43.5t-63 41.5q-35 24 -43.5 31 t-23 25.5t-17 27.5t-2.5 45zM430 615l321 4q0 60 -6 123q-5 47 -7.5 60t-13.5 43q-13 35 -18.5 44t-28 27t-31.5 21t-43 3h-33t-22.5 -3.5t-17.5 -6t-14.5 -14t-16 -21t-19.5 -33.5q-35 -58 -41 -89t-9 -158z" />
<glyph unicode="&#xe9;" horiz-adv-x="1171" d="M71 500q0 76 4.5 100.5t33 95t41.5 91t65 75.5q51 53 72.5 67.5t99 47.5t106.5 38.5t125 5.5q105 0 134 -4t96 -30q67 -25 86 -37t63 -57q43 -43 53.5 -59.5t30 -75t22.5 -78.5t3 -84v-65h-676v-87.5t3.5 -60t6 -45.5t14.5 -35.5t21.5 -38t33.5 -45.5t33.5 -46t29 -29 t27.5 -19.5t37.5 -8t50 -4.5h73.5q70 0 91.5 6.5t77.5 45.5q33 22 44.5 30t27.5 24.5t24.5 28.5t31.5 47l76 -55q-19 -32 -28 -44t-19 -23.5t-38 -39.5q-37 -38 -51 -49t-61 -38q-50 -29 -67 -36t-68.5 -21.5t-71 -17t-86.5 -2.5q-111 0 -143 5.5t-112.5 36.5t-103 45.5 t-75 67.5t-65.5 74t-38.5 93.5t-30 98.5t-4.5 111zM361 1139q88 117 136 186.5t83 118.5q43 61 82 82.5t97 21.5q48 0 86.5 -26t38.5 -62q0 -45 -20.5 -72.5t-65.5 -56.5q-49 -32 -155 -90.5t-240 -139.5zM430 615l321 4q0 60 -6 123q-5 47 -7.5 60t-13.5 43 q-13 35 -18.5 44t-28 27t-31.5 21t-43 3h-33t-22.5 -3.5t-17.5 -6t-14.5 -14t-16 -21t-19.5 -33.5q-35 -58 -41 -89t-9 -158z" />
<glyph unicode="&#xea;" horiz-adv-x="1171" d="M71 500q0 76 4.5 100.5t33 95t41.5 91t65 75.5q51 53 72.5 67.5t99 47.5t106.5 38.5t125 5.5q105 0 134 -4t96 -30q67 -25 86 -37t63 -57q43 -43 53.5 -59.5t30 -75t22.5 -78.5t3 -84v-65h-676v-87.5t3.5 -60t6 -45.5t14.5 -35.5t21.5 -38t33.5 -45.5t33.5 -46t29 -29 t27.5 -19.5t37.5 -8t50 -4.5h73.5q70 0 91.5 6.5t77.5 45.5q33 22 44.5 30t27.5 24.5t24.5 28.5t31.5 47l76 -55q-19 -32 -28 -44t-19 -23.5t-38 -39.5q-37 -38 -51 -49t-61 -38q-50 -29 -67 -36t-68.5 -21.5t-71 -17t-86.5 -2.5q-111 0 -143 5.5t-112.5 36.5t-103 45.5 t-75 67.5t-65.5 74t-38.5 93.5t-30 98.5t-4.5 111zM226 1132q100 161 139 224t92 131q17 23 24 29t30.5 17t34 13t51.5 2t51.5 -1.5t30.5 -12.5q20 -10 26.5 -15.5t24.5 -27.5q26 -32 37 -46t22.5 -31t40.5 -64q54 -84 137 -218l-54 -29l-320 254l-316 -254zM430 615l321 4 q0 60 -6 123q-5 47 -7.5 60t-13.5 43q-13 35 -18.5 44t-28 27t-31.5 21t-43 3h-33t-22.5 -3.5t-17.5 -6t-14.5 -14t-16 -21t-19.5 -33.5q-35 -58 -41 -89t-9 -158z" />
<glyph unicode="&#xeb;" horiz-adv-x="1171" d="M71 500q0 76 4.5 100.5t33 95t41.5 91t65 75.5q51 53 72.5 67.5t99 47.5t106.5 38.5t125 5.5q105 0 134 -4t96 -30q67 -25 86 -37t63 -57q43 -43 53.5 -59.5t30 -75t22.5 -78.5t3 -84v-65h-676v-87.5t3.5 -60t6 -45.5t14.5 -35.5t21.5 -38t33.5 -45.5t33.5 -46t29 -29 t27.5 -19.5t37.5 -8t50 -4.5h73.5q70 0 91.5 6.5t77.5 45.5q33 22 44.5 30t27.5 24.5t24.5 28.5t31.5 47l76 -55q-19 -32 -28 -44t-19 -23.5t-38 -39.5q-37 -38 -51 -49t-61 -38q-50 -29 -67 -36t-68.5 -21.5t-71 -17t-86.5 -2.5q-111 0 -143 5.5t-112.5 36.5t-103 45.5 t-75 67.5t-65.5 74t-38.5 93.5t-30 98.5t-4.5 111zM189 1349q0 67 46.5 117.5t112.5 50.5q64 0 112 -50.5t48 -117.5t-48 -117.5t-112 -50.5q-65 0 -112 50t-47 118zM430 615l321 4q0 60 -6 123q-5 47 -7.5 60t-13.5 43q-13 35 -18.5 44t-28 27t-31.5 21t-43 3h-33 t-22.5 -3.5t-17.5 -6t-14.5 -14t-16 -21t-19.5 -33.5q-35 -58 -41 -89t-9 -158zM684 1349q0 67 47 117.5t113 50.5q64 0 111.5 -50.5t47.5 -117.5t-47.5 -117.5t-111.5 -50.5q-65 0 -112.5 50t-47.5 118z" />
<glyph unicode="&#xec;" horiz-adv-x="724" d="M33 905v73l490 26l15 -15v-794q0 -26 2 -33.5t13 -26t16.5 -23t26.5 -13.5q20 -9 44 -16t50 -10v-73h-632v73q26 2 51 5t43 10q24 9 29.5 13.5t15.5 21t11.5 24t1.5 35.5v582q0 19 -1 26.5t-3.5 14t-11.5 21.5q-12 19 -17 24.5t-23 17.5q-14 9 -20.5 12t-33.5 11 q-37 11 -67 14zM58 1460q0 27 5 35t33.5 27.5t39.5 22.5t47 3q46 0 58 -2.5t39 -16t37.5 -24.5t44.5 -61q33 -48 89.5 -127.5t129.5 -177.5l-42 -38q-92 56 -124.5 75t-56 32t-70 37.5t-64 34.5t-32.5 19t-48 32q-35 24 -43.5 31t-23 25.5t-17 27.5t-2.5 45z" />
<glyph unicode="&#xed;" horiz-adv-x="724" d="M33 905v73l490 26l15 -15v-794q0 -26 2 -33.5t13 -26t16.5 -23t26.5 -13.5q20 -9 44 -16t50 -10v-73h-632v73q26 2 51 5t43 10q24 9 29.5 13.5t15.5 21t11.5 24t1.5 35.5v582q0 19 -1 26.5t-3.5 14t-11.5 21.5q-12 19 -17 24.5t-23 17.5q-14 9 -20.5 12t-33.5 11 q-37 11 -67 14zM110 1139q88 117 136 186.5t83 118.5q43 61 82 82.5t97 21.5q48 0 86.5 -26t38.5 -62q0 -45 -20.5 -72.5t-65.5 -56.5q-49 -32 -155 -90.5t-240 -139.5z" />
<glyph unicode="&#xee;" horiz-adv-x="724" d="M-18 1132q86 151 126 219t85 136q22 33 53 47t87 14q57 0 85 -14t48 -43q47 -65 94.5 -147.5t122.5 -211.5l-54 -29l-300 254l-296 -254zM33 905v73l490 26l15 -15v-794q0 -35 15 -59.5t43 -36.5q20 -9 44 -16t50 -10v-73h-632v73q26 2 51 5t43 10q32 12 45 34.5t13 59.5 v582q0 35 -16 61.5t-40 42.5q-18 12 -54.5 23t-66.5 14z" />
<glyph unicode="&#xef;" horiz-adv-x="724" d="M-59 1349q0 67 46.5 117.5t112.5 50.5q64 0 112 -50.5t48 -117.5t-48 -117.5t-112 -50.5q-65 0 -112 50t-47 118zM33 905v73l490 26l15 -15v-794q0 -35 15 -59.5t43 -36.5q20 -9 44 -16t50 -10v-73h-632v73q26 2 51 5t43 10q32 12 45 34.5t13 59.5v582q0 35 -16 61.5 t-40 42.5q-18 12 -54.5 23t-66.5 14zM400 1349q0 67 47 117.5t113 50.5q64 0 111.5 -50.5t47.5 -117.5t-47.5 -117.5t-111.5 -50.5q-65 0 -112.5 50t-47.5 118z" />
<glyph unicode="&#xf0;" horiz-adv-x="1306" d="M71 500q0 228 142.5 373.5t372.5 145.5q96 0 164.5 -29t116.5 -86l10 2q-13 95 -47 187.5t-94 170.5l-212 -134l-60 83l205 129q-35 35 -80.5 69.5t-88.5 62.5l48 74q46 -19 103.5 -44.5t143.5 -79.5l196 124l60 -83l-167 -105q61 -47 128.5 -122t111.5 -156 q54 -99 80.5 -209.5t26.5 -242.5q0 -315 -157 -488.5t-430 -173.5q-255 0 -414 145.5t-159 386.5zM436 506q0 -101 10 -179t36 -144q26 -64 68 -99t104 -35q57 0 99 34t67 97q25 61 36.5 142.5t11.5 179.5q0 86 -10 165.5t-34 133.5q-25 58 -65 89t-105 31q-69 0 -110.5 -34 t-66.5 -93q-24 -56 -32.5 -132.5t-8.5 -155.5z" />
<glyph unicode="&#xf1;" horiz-adv-x="1413" d="M44 905v73l477 26l15 -15v-145h4q28 25 68 60t74 57q28 18 40 23t57 18t61 15t67 2q71 0 96 -0.5t56 -12t44 -25.5t49 -55q61 -69 71 -99.5t10 -145.5v-490q0 -28 1.5 -35.5t9.5 -23.5t13 -20.5t28 -14.5q16 -7 39.5 -14t53.5 -10v-73h-602v73q19 2 46 5t41 10 q16 8 19.5 12t10.5 20t8 23.5t1 38.5v468q0 76 -4.5 95.5t-33.5 58.5q-7 10 -11 15t-9 12t-9 9t-8 6t-10 4.5t-10 2.5t-14 2h-17h-22q-30 0 -39.5 -1.5t-35 -10.5t-34 -13.5t-33.5 -21.5q-22 -15 -27.5 -20t-18.5 -21q-18 -21 -30 -37v-537q0 -26 1 -33.5t9 -25t12 -22 t21 -13.5q16 -9 40 -16t47 -10v-73h-608v73q25 2 50.5 5.5t43.5 9.5q24 8 29.5 12.5t14.5 21.5t10.5 24.5t1.5 35.5v582q0 23 -2 30.5t-14 30.5q-12 22 -17.5 28.5t-24.5 20.5q-13 9 -19 11.5t-27 8.5q-27 8 -60 11zM257 1171q14 40 40 90q20 37 28 49.5t37 49.5 q25 32 36 41.5t50 34.5t52 29t52 4q50 0 64.5 -2t53.5 -14.5t51 -17.5t45 -21l76 -38q22 -12 31 -14t41 -2q29 0 40.5 0.5t23.5 1.5t18 7l11.5 11.5t16.5 19.5q16 22 22 32.5t11 23t17 47.5l77 -24q-9 -32 -14 -44t-25 -53q-16 -29 -22.5 -40.5t-14.5 -22t-30 -34.5 q-33 -37 -44 -46.5t-46 -31.5t-48 -25.5t-59 -3.5q-54 0 -69.5 2t-56 15.5t-52 18t-40.5 19.5q-34 18 -76 37q-31 14 -40.5 16.5t-37.5 2.5q-34 0 -43.5 -4.5t-32 -30t-31.5 -39.5t-40 -74z" />
<glyph unicode="&#xf2;" horiz-adv-x="1302" d="M71 494q0 90 5 116.5t33.5 97t43 91t72.5 75.5q55 52 78 66t104.5 42.5t112 33.5t130.5 5q105 0 136 -5t110.5 -33.5t102.5 -42.5t80 -66q55 -52 69.5 -72.5t43.5 -92.5t34 -98t5 -110q0 -83 -5 -109.5t-33.5 -100t-43 -94.5t-69.5 -74q-59 -56 -82.5 -70.5t-106 -44.5 t-113.5 -35t-137 -5q-91 0 -119.5 4.5t-105 30.5t-99.5 39t-82 66q-57 50 -72 71t-48 94.5t-38.5 101t-5.5 119.5zM357 1460q0 27 5 35t33.5 27.5t39.5 22.5t47 3q46 0 58 -2.5t39 -16t37.5 -24.5t44.5 -61q33 -48 89.5 -127.5t129.5 -177.5l-42 -38q-92 56 -124.5 75 t-56 32t-69.5 38q-64 33 -82 43.5t-63 41.5q-35 24 -43.5 31t-23 25.5t-17 27.5t-2.5 45zM436 507q0 -82 1 -104.5t6 -76.5q4 -39 6.5 -55t7.5 -32t20 -56q17 -46 25.5 -58.5t40.5 -39.5t45.5 -31.5t63.5 -4.5q45 0 58 4t45 29.5t40.5 37.5t27.5 61q17 42 21 59t11.5 77 t9 83.5t1.5 102.5q0 70 -10 160q-8 68 -11.5 85.5t-18.5 56.5q-18 47 -26.5 59.5t-39.5 39.5q-19 16 -26 21.5t-20 10t-23.5 4.5h-38.5q-53 0 -67.5 -5t-46 -34t-40 -41.5t-25.5 -59.5q-16 -43 -19.5 -59.5t-9.5 -74t-7 -77.5t-1 -82z" />
<glyph unicode="&#xf3;" horiz-adv-x="1302" d="M71 494q0 90 5 116.5t33.5 97t43 91t72.5 75.5q55 52 78 66t104.5 42.5t112 33.5t130.5 5q105 0 136 -5t110.5 -33.5t102.5 -42.5t80 -66q55 -52 69.5 -72.5t43.5 -92.5t34 -98t5 -110q0 -83 -5 -109.5t-33.5 -100t-43 -94.5t-69.5 -74q-59 -56 -82.5 -70.5t-106 -44.5 t-113.5 -35t-137 -5q-91 0 -119.5 4.5t-105 30.5t-99.5 39t-82 66q-57 50 -72 71t-48 94.5t-38.5 101t-5.5 119.5zM420 1139q88 117 136 186.5t83 118.5q43 61 82 82.5t97 21.5q48 0 86.5 -26t38.5 -62q0 -45 -20.5 -72.5t-65.5 -56.5q-49 -32 -155 -90.5t-240 -139.5z M436 507q0 -82 1 -104.5t6 -76.5q4 -39 6.5 -55t7.5 -32t20 -56q17 -46 25.5 -58.5t40.5 -39.5t45.5 -31.5t63.5 -4.5q45 0 58 4t45 29.5t40.5 37.5t27.5 61q17 42 21 59t11.5 77t9 83.5t1.5 102.5q0 70 -10 160q-8 68 -11.5 85.5t-18.5 56.5q-18 47 -26.5 59.5t-39.5 39.5 q-19 16 -26 21.5t-20 10t-23.5 4.5h-38.5q-53 0 -67.5 -5t-46 -34t-40 -41.5t-25.5 -59.5q-16 -43 -19.5 -59.5t-9.5 -74t-7 -77.5t-1 -82z" />
<glyph unicode="&#xf4;" horiz-adv-x="1302" d="M71 494q0 90 5 116.5t33.5 97t43 91t72.5 75.5q55 52 78 66t104.5 42.5t112 33.5t130.5 5q105 0 136 -5t110.5 -33.5t102.5 -42.5t80 -66q55 -52 69.5 -72.5t43.5 -92.5t34 -98t5 -110q0 -83 -5 -109.5t-33.5 -100t-43 -94.5t-69.5 -74q-59 -56 -82.5 -70.5t-106 -44.5 t-113.5 -35t-137 -5q-91 0 -119.5 4.5t-105 30.5t-99.5 39t-82 66q-57 50 -72 71t-48 94.5t-38.5 101t-5.5 119.5zM281 1132q100 161 139 224t92 131q13 17 18.5 23t12 10.5t23.5 12.5q24 11 35 13t51 2q41 0 51.5 -1.5t30.5 -12.5q20 -10 26.5 -15.5t24.5 -27.5 q35 -43 47.5 -60.5t53.5 -80.5q53 -84 136 -218l-54 -29l-320 254l-316 -254zM436 507q0 -82 1 -104.5t6 -76.5q4 -39 6.5 -55t7.5 -32t20 -56q17 -46 25.5 -58.5t40.5 -39.5t45.5 -31.5t63.5 -4.5q45 0 58 4t45 29.5t40.5 37.5t27.5 61q17 42 21 59t11.5 77t9 83.5 t1.5 102.5q0 70 -10 160q-8 68 -11.5 85.5t-18.5 56.5q-18 47 -26.5 59.5t-39.5 39.5q-19 16 -26 21.5t-20 10t-23.5 4.5h-38.5q-53 0 -67.5 -5t-46 -34t-40 -41.5t-25.5 -59.5q-16 -43 -19.5 -59.5t-9.5 -74t-7 -77.5t-1 -82z" />
<glyph unicode="&#xf5;" horiz-adv-x="1302" d="M71 494q0 90 5 116.5t33.5 97t43 91t72.5 75.5q55 52 78 66t104.5 42.5t112 33.5t130.5 5q105 0 136 -5t110.5 -33.5t102.5 -42.5t80 -66q55 -52 69.5 -72.5t43.5 -92.5t34 -98t5 -110q0 -83 -5 -109.5t-33.5 -100t-43 -94.5t-69.5 -74q-59 -56 -82.5 -70.5t-106 -44.5 t-113.5 -35t-137 -5q-91 0 -119.5 4.5t-105 30.5t-99.5 39t-82 66q-57 50 -72 71t-48 94.5t-38.5 101t-5.5 119.5zM204 1171q14 40 40 90q20 37 28 49.5t37 49.5q25 32 36 41.5t50 34.5t52 29t52 4q49 0 64 -2t54 -14.5t51 -17.5t45 -21q46 -23 75 -38q23 -12 32 -14t41 -2 q29 0 40.5 0.5t23.5 1.5t18 7l11.5 11.5t15.5 19.5q17 22 23 32.5t11 23t17 47.5l77 -24q-9 -32 -14 -44t-26 -53q-15 -29 -21.5 -40.5t-14.5 -22t-30 -34.5q-33 -37 -44.5 -46.5t-45.5 -31.5t-47.5 -25.5t-59.5 -3.5q-54 0 -69.5 2t-56 15.5t-52 18t-40.5 19.5 q-34 18 -75 37q-32 14 -41.5 16.5t-37.5 2.5q-34 0 -43.5 -4.5t-32 -30t-31.5 -39.5t-40 -74zM436 507q0 -82 1 -104.5t6 -76.5q4 -39 6.5 -55t7.5 -32t20 -56q17 -46 25.5 -58.5t40.5 -39.5t45.5 -31.5t63.5 -4.5q45 0 58 4t45 29.5t40.5 37.5t27.5 61q17 42 21 59t11.5 77 t9 83.5t1.5 102.5q0 70 -10 160q-8 68 -11.5 85.5t-18.5 56.5q-18 47 -26.5 59.5t-39.5 39.5q-19 16 -26 21.5t-20 10t-23.5 4.5h-38.5q-53 0 -67.5 -5t-46 -34t-40 -41.5t-25.5 -59.5q-16 -43 -19.5 -59.5t-9.5 -74t-7 -77.5t-1 -82z" />
<glyph unicode="&#xf6;" horiz-adv-x="1302" d="M71 494q0 90 5 116.5t33.5 97t43 91t72.5 75.5q55 52 78 66t104.5 42.5t112 33.5t130.5 5q105 0 136 -5t110.5 -33.5t102.5 -42.5t80 -66q55 -52 69.5 -72.5t43.5 -92.5t34 -98t5 -110q0 -83 -5 -109.5t-33.5 -100t-43 -94.5t-69.5 -74q-59 -56 -82.5 -70.5t-106 -44.5 t-113.5 -35t-137 -5q-91 0 -119.5 4.5t-105 30.5t-99.5 39t-82 66q-57 50 -72 71t-48 94.5t-38.5 101t-5.5 119.5zM244 1349q0 67 46.5 117.5t112.5 50.5q64 0 112 -50.5t48 -117.5t-48 -117.5t-112 -50.5q-65 0 -112 50t-47 118zM436 507q0 -82 1 -104.5t6 -76.5 q4 -39 6.5 -55t7.5 -32t20 -56q17 -46 25.5 -58.5t40.5 -39.5t45.5 -31.5t63.5 -4.5q45 0 58 4t45 29.5t40.5 37.5t27.5 61q17 42 21 59t11.5 77t9 83.5t1.5 102.5q0 70 -10 160q-8 68 -11.5 85.5t-18.5 56.5q-18 47 -26.5 59.5t-39.5 39.5q-19 16 -26 21.5t-20 10 t-23.5 4.5h-38.5q-53 0 -67.5 -5t-46 -34t-40 -41.5t-25.5 -59.5q-16 -43 -19.5 -59.5t-9.5 -74t-7 -77.5t-1 -82zM739 1349q0 67 47 117.5t113 50.5q64 0 111.5 -50.5t47.5 -117.5t-47.5 -117.5t-111.5 -50.5q-65 0 -112.5 50t-47.5 118z" />
<glyph unicode="&#xf7;" d="M164 493v163h1111v-163h-1111zM557 166q0 69 48 118t115 49q66 0 114 -49t48 -118t-48 -117.5t-114 -48.5q-67 0 -115 48.5t-48 117.5zM557 982q0 69 48 118t115 49q66 0 114 -49t48 -118t-48 -117.5t-114 -48.5q-67 0 -115 48.5t-48 117.5z" />
<glyph unicode="&#xf8;" horiz-adv-x="1302" d="M35 -56l185 184q-68 67 -108.5 160.5t-40.5 205.5q0 235 155 381t424 146q112 0 203 -27t160 -73l180 181l66 -61l-179 -176q72 -69 111.5 -161t39.5 -203t-38.5 -209.5t-112.5 -168.5q-79 -75 -188.5 -115t-250.5 -40q-99 0 -189.5 26.5t-164.5 77.5l-186 -189zM427 507 q0 -53 1.5 -90.5t4.5 -84.5l416 430q-25 93 -74 138t-123 45q-71 0 -115.5 -39t-69.5 -102q-24 -62 -32 -142t-8 -155zM452 231q24 -86 70 -136.5t130 -50.5q62 0 106.5 34.5t69.5 97.5q27 67 37 144.5t10 182.5q0 32 -1 81t-5 79z" />
<glyph unicode="&#xf9;" horiz-adv-x="1386" d="M15 905v73l485 26l11 -15v-665q0 -77 5 -96t34.5 -56t43 -43t65.5 -6q53 0 69 4.5t58 32.5q32 21 43 29.5t18.5 17.5t21.5 32v539q0 26 -1.5 33.5t-11.5 27.5t-14.5 25.5t-23.5 18.5q-14 9 -20 11t-32 5q-33 4 -68 6v73l485 26l15 -15v-772q0 -26 2 -33.5t12 -26 t15.5 -23.5t25.5 -18q14 -9 20.5 -11t28.5 -5q31 -5 61 -6v-73l-477 -29l-15 14v131h-6q-34 -31 -67 -61q-24 -22 -33.5 -28.5t-43.5 -24.5q-38 -20 -50 -25t-46.5 -15t-51 -11.5t-81.5 -1.5q-113 0 -142 11.5t-89.5 79.5t-70.5 100.5t-10 156.5v450q0 29 -2 37t-13 26.5 t-16 24t-24 19.5q-15 11 -21.5 14t-30.5 7q-32 7 -58 9zM383 1460q0 27 5 35t33.5 27.5t39.5 22.5t47 3q46 0 58 -2.5t39 -16t37.5 -24.5t44.5 -61q33 -48 89.5 -127.5t129.5 -177.5l-42 -38q-92 56 -124.5 75t-56 32t-69.5 38q-64 33 -82 43.5t-63 41.5q-35 24 -43.5 31 t-23 25.5t-17 27.5t-2.5 45z" />
<glyph unicode="&#xfa;" horiz-adv-x="1386" d="M15 905v73l485 26l11 -15v-665q0 -77 5 -96t34.5 -56t43 -43t65.5 -6q53 0 69 4.5t58 32.5q32 21 43 29.5t18.5 17.5t21.5 32v539q0 26 -1.5 33.5t-11.5 27.5t-14.5 25.5t-23.5 18.5q-14 9 -20 11t-32 5q-33 4 -68 6v73l485 26l15 -15v-772q0 -26 2 -33.5t12 -26 t15.5 -23.5t25.5 -18q14 -9 20.5 -11t28.5 -5q31 -5 61 -6v-73l-477 -29l-15 14v131h-6q-34 -31 -67 -61q-24 -22 -33.5 -28.5t-43.5 -24.5q-38 -20 -50 -25t-46.5 -15t-51 -11.5t-81.5 -1.5q-113 0 -142 11.5t-89.5 79.5t-70.5 100.5t-10 156.5v450q0 29 -2 37t-13 26.5 t-16 24t-24 19.5q-15 11 -21.5 14t-30.5 7q-32 7 -58 9zM451 1139q88 117 136 186.5t83 118.5q43 61 82 82.5t97 21.5q48 0 86.5 -26t38.5 -62q0 -45 -20.5 -72.5t-65.5 -56.5q-49 -32 -155 -90.5t-240 -139.5z" />
<glyph unicode="&#xfb;" horiz-adv-x="1386" d="M15 905v73l485 26l11 -15v-665q0 -77 5 -96t34.5 -56t43 -43t65.5 -6q53 0 69 4.5t58 32.5q32 21 43 29.5t18.5 17.5t21.5 32v539q0 26 -1.5 33.5t-11.5 27.5t-14.5 25.5t-23.5 18.5q-14 9 -20 11t-32 5q-33 4 -68 6v73l485 26l15 -15v-772q0 -26 2 -33.5t12 -26 t15.5 -23.5t25.5 -18q14 -9 20.5 -11t28.5 -5q31 -5 61 -6v-73l-477 -29l-15 14v131h-6q-34 -31 -67 -61q-24 -22 -33.5 -28.5t-43.5 -24.5q-38 -20 -50 -25t-46.5 -15t-51 -11.5t-81.5 -1.5q-113 0 -142 11.5t-89.5 79.5t-70.5 100.5t-10 156.5v450q0 29 -2 37t-13 26.5 t-16 24t-24 19.5q-15 11 -21.5 14t-30.5 7q-32 7 -58 9zM307 1132q100 161 139 224t92 131q17 23 24 29t30.5 17t34.5 13t51 2q41 0 51.5 -1.5t30.5 -12.5q20 -10 26.5 -15.5t24.5 -27.5q26 -32 37 -46t22.5 -31t41.5 -64q53 -84 136 -218l-54 -29l-320 254l-316 -254z" />
<glyph unicode="&#xfc;" horiz-adv-x="1386" d="M15 905v73l485 26l11 -15v-665q0 -77 5 -96t34.5 -56t43 -43t65.5 -6q53 0 69 4.5t58 32.5q32 21 43 29.5t18.5 17.5t21.5 32v539q0 26 -1.5 33.5t-11.5 27.5t-14.5 25.5t-23.5 18.5q-14 9 -20 11t-32 5q-33 4 -68 6v73l485 26l15 -15v-772q0 -26 2 -33.5t12 -26 t15.5 -23.5t25.5 -18q14 -9 20.5 -11t28.5 -5q31 -5 61 -6v-73l-477 -29l-15 14v131h-6q-34 -31 -67 -61q-24 -22 -33.5 -28.5t-43.5 -24.5q-38 -20 -50 -25t-46.5 -15t-51 -11.5t-81.5 -1.5q-113 0 -142 11.5t-89.5 79.5t-70.5 100.5t-10 156.5v450q0 29 -2 37t-13 26.5 t-16 24t-24 19.5q-15 11 -21.5 14t-30.5 7q-32 7 -58 9zM270 1349q0 67 46.5 117.5t112.5 50.5q64 0 112 -50.5t48 -117.5t-48 -117.5t-112 -50.5q-65 0 -112 50t-47 118zM765 1349q0 67 47 117.5t113 50.5q64 0 111.5 -50.5t47.5 -117.5t-47.5 -117.5t-111.5 -50.5 q-65 0 -112.5 50t-47.5 118z" />
<glyph unicode="&#xfd;" horiz-adv-x="1151" d="M-28 919v73h612v-73q-25 -1 -35 -3t-43 -12q-20 -6 -26.5 -8.5t-12.5 -7t-6 -7.5v-13q0 -8 3 -17.5t11 -27.5q34 -70 96.5 -194.5t145.5 -291.5q62 142 105.5 244.5t84.5 201.5q10 25 11.5 39.5t1.5 19.5q0 14 -2 17.5t-16 14.5q-17 13 -41 23q-25 10 -48 15t-38 7v73 h413v-73q-34 -5 -45 -9.5t-42.5 -24.5t-40.5 -30.5t-30 -53.5q-86 -182 -177 -387.5t-202 -444.5q-46 -101 -61.5 -127.5t-58.5 -86.5t-57 -75.5t-52 -47.5q-36 -30 -48 -37t-47 -21t-47 -16t-48 -2q-71 0 -90.5 6.5t-63.5 46.5q-32 29 -42 41.5t-13 26.5t-3 51q0 28 6 52 q5 18 8.5 24t19.5 26q7 10 9.5 13t9 8t11.5 7.5t20 9.5q18 8 26 10.5t17 3.5t32 1q42 0 55.5 -5t51.5 -34t51.5 -42.5t54.5 -65.5q25 25 35 37t46.5 61.5t45.5 66t26 68.5q-119 250 -211 433.5t-206 409.5q-19 36 -27 45.5t-40 28.5q-23 15 -33 20t-20 7.5t-36 5.5z M401 1139q88 117 136 186.5t83 118.5q43 61 82 82.5t97 21.5q48 0 86.5 -26t38.5 -62q0 -45 -20.5 -72.5t-65.5 -56.5q-49 -32 -155 -90.5t-240 -139.5z" />
<glyph unicode="&#xfe;" horiz-adv-x="1321" d="M-20 1449v73l494 26l15 -13v-655l8 -2q66 67 146.5 104t159.5 37q207 0 327 -146.5t120 -385.5q0 -211 -141 -362t-357 -151q-96 0 -156 19.5t-99 47.5h-8v-281q0 -35 15.5 -61t43.5 -38q27 -12 76.5 -20.5t82.5 -10.5v-74h-722v74q25 2 64 7.5t56 11.5q32 11 43.5 37.5 t11.5 60.5v1550q0 38 -15.5 70.5t-41.5 49.5q-19 12 -55.5 21t-67.5 11zM489 219q6 -20 23 -51.5t34 -50.5q25 -27 57 -40t70 -13q99 0 158.5 106.5t59.5 312.5q0 75 -11 143.5t-39 122.5t-72 86t-108 32q-65 0 -104 -22.5t-68 -58.5v-567z" />
<glyph unicode="&#xff;" horiz-adv-x="1151" d="M-28 919v73h612v-73q-25 -1 -35 -3t-43 -12q-20 -6 -26.5 -8.5t-12.5 -7t-6 -7.5v-13q0 -8 3 -17.5t11 -27.5q34 -70 96.5 -194.5t145.5 -291.5q62 142 105.5 244.5t84.5 201.5q10 25 11.5 39.5t1.5 19.5q0 14 -2 17.5t-16 14.5q-17 13 -41 23q-25 10 -48 15t-38 7v73 h413v-73q-34 -5 -45 -9.5t-42.5 -24.5t-40.5 -30.5t-30 -53.5q-86 -182 -177 -387.5t-202 -444.5q-46 -101 -61.5 -127.5t-58.5 -86.5t-57 -75.5t-52 -47.5q-36 -30 -48 -37t-47 -21t-47 -16t-48 -2q-71 0 -90.5 6.5t-63.5 46.5q-32 29 -42 41.5t-13 26.5t-3 51q0 28 6 52 q5 18 8.5 24t19.5 26q7 10 9.5 13t9 8t11.5 7.5t20 9.5q18 8 26 10.5t17 3.5t32 1q42 0 55.5 -5t51.5 -34t51.5 -42.5t54.5 -65.5q25 25 35 37t46.5 61.5t45.5 66t26 68.5q-119 250 -211 433.5t-206 409.5q-19 36 -27 45.5t-40 28.5q-23 15 -33 20t-20 7.5t-36 5.5z M225 1349q0 67 46.5 117.5t112.5 50.5q64 0 112 -50.5t48 -117.5t-48 -117.5t-112 -50.5q-65 0 -112 50t-47 118zM720 1349q0 67 47 117.5t113 50.5q64 0 111.5 -50.5t47.5 -117.5t-47.5 -117.5t-111.5 -50.5q-65 0 -112.5 50t-47.5 118z" />
<glyph unicode="&#x152;" horiz-adv-x="2254" d="M71 709q0 184 73 324.5t213 235.5q98 67 238.5 108.5t283.5 41.5h1225v-362h-76q-29 81 -100 164t-141 98q-30 6 -83.5 8t-88.5 2h-186v-548h126q55 0 100 13t82 50q23 23 46.5 81t30.5 101h76v-592h-76q-6 42 -30.5 105.5t-46.5 87.5q-33 36 -78 49.5t-104 13.5h-126 v-409q0 -130 39 -160t183 -30q141 0 204.5 12.5t88.5 38.5q48 49 108 149.5t79 150.5h73l-27 -442h-1298q-116 0 -258 34t-264 116q-147 99 -216.5 241.5t-69.5 317.5zM471 709q0 -279 120 -448.5t339 -169.5q25 0 68 0.5t77 2.5v1231q-34 2 -79 2.5t-66 0.5 q-217 0 -338 -168t-121 -451z" />
<glyph unicode="&#x153;" horiz-adv-x="1921" d="M71 494q0 231 151.5 379t415.5 148q128 0 224 -36t171 -102q82 72 172 105t174 33q130 0 222 -34.5t148 -93.5q56 -58 81 -135t25 -162v-65h-659q0 -204 77.5 -311.5t245.5 -107.5q92 0 163.5 53t123.5 130l76 -56q-73 -122 -195.5 -196.5t-282.5 -74.5 q-126 0 -220.5 35.5t-164.5 97.5q-76 -63 -169 -98t-220 -35q-236 0 -397.5 140.5t-161.5 385.5zM435 507q0 -101 7.5 -179.5t31.5 -144.5q22 -63 63 -98.5t103 -35.5q59 0 99.5 35.5t62.5 96.5q24 65 32.5 142.5t8.5 179.5q0 80 -8 161t-29 141q-24 63 -62 99t-104 36 q-68 0 -108 -39.5t-62 -100.5q-22 -62 -28.5 -142t-6.5 -151zM1196 615l309 4q0 52 -5.5 119t-17.5 104q-15 44 -43 71t-75 27q-77 0 -120.5 -79t-47.5 -246z" />
<glyph unicode="&#x178;" horiz-adv-x="1499" d="M-61 1341v78h813v-78q-49 -1 -66 -1.5t-36 -2.5t-25.5 -4t-23.5 -7q-29 -10 -34 -14t-5 -21q0 -11 14.5 -44t51.5 -102q34 -65 99.5 -179t157.5 -267q190 301 261 421q53 89 62 107.5t9 38.5q0 26 -5 32.5t-36.5 19.5t-48 16t-86.5 7v78h526v-78q-36 -4 -66 -13t-57 -25 q-32 -18 -41.5 -25.5t-35 -36t-33.5 -39t-32 -44.5q-65 -95 -136.5 -206.5t-155.5 -245.5q-41 -64 -49.5 -80t-18 -50.5t-11 -54t-1.5 -103.5v-201q0 -27 1.5 -35t12 -28t16.5 -25.5t35 -18.5q17 -7 72 -18.5t81 -13.5v-78h-791v78q28 2 81 8q39 4 48 6t25 8q16 7 22 9.5 t12 8t8.5 9.5t8.5 15q10 20 11.5 28t1.5 37v250q0 33 -1 58t-7 42q-7 19 -24 48.5t-44 76.5q-77 135 -149 256t-137 227q-26 41 -34.5 52t-34 36.5t-34.5 32t-36 22.5q-20 11 -28.5 14t-37.5 9q-38 8 -69 10zM392 1700q0 50 6 65t40 53q26 28 37.5 36t25 11t50.5 3 q48 0 62 -6.5t50 -44t42 -52.5t6 -65t-6 -65t-42 -52.5t-50 -44t-62 -6.5q-49 0 -63 6t-49 44t-41 52.5t-6 65.5zM928 1700q0 50 6 65t41 52.5t49 44t64 6.5q48 0 62 -6.5t49.5 -44t41.5 -52.5t6 -65t-6 -65t-41.5 -52.5t-49.5 -44t-62 -6.5q-49 0 -63 6.5t-49.5 43.5 t-41.5 52t-6 66z" />
<glyph unicode="&#x2000;" horiz-adv-x="934" />
<glyph unicode="&#x2001;" horiz-adv-x="1868" />
<glyph unicode="&#x2002;" horiz-adv-x="934" />
<glyph unicode="&#x2003;" horiz-adv-x="1868" />
<glyph unicode="&#x2004;" horiz-adv-x="622" />
<glyph unicode="&#x2005;" horiz-adv-x="467" />
<glyph unicode="&#x2006;" horiz-adv-x="311" />
<glyph unicode="&#x2007;" horiz-adv-x="311" />
<glyph unicode="&#x2008;" horiz-adv-x="233" />
<glyph unicode="&#x2009;" horiz-adv-x="373" />
<glyph unicode="&#x200a;" horiz-adv-x="103" />
<glyph unicode="&#x2010;" horiz-adv-x="776" d="M85 435v221h606v-221h-606z" />
<glyph unicode="&#x2011;" horiz-adv-x="776" d="M85 435v221h606v-221h-606z" />
<glyph unicode="&#x2012;" horiz-adv-x="776" d="M85 435v221h606v-221h-606z" />
<glyph unicode="&#x2013;" horiz-adv-x="1194" d="M85 435v221h1024v-221h-1024z" />
<glyph unicode="&#x2014;" horiz-adv-x="2218" d="M85 435v221h2048v-221h-2048z" />
<glyph unicode="&#x2018;" horiz-adv-x="550" d="M62 1099q0 120 101.5 242t244.5 185l44 -71q-113 -55 -177 -128t-74 -177h56q62 0 101 -14t63 -39q23 -24 32.5 -53t9.5 -60q0 -64 -51.5 -112t-121.5 -48q-110 0 -169 73t-59 202z" />
<glyph unicode="&#x2019;" horiz-adv-x="550" d="M87 1370q0 64 51.5 112t121.5 48q110 0 169 -73t59 -202q0 -120 -101.5 -242t-244.5 -185l-44 71q113 55 177 128t74 177h-56q-62 0 -101 14t-63 39q-23 23 -32.5 52.5t-9.5 60.5z" />
<glyph unicode="&#x201a;" horiz-adv-x="550" d="M64 166q0 64 51.5 112t121.5 48q110 0 169 -73t59 -202q0 -120 -101.5 -242t-244.5 -185l-44 71q113 55 177 128t74 177h-56q-62 0 -101 14t-63 39q-23 23 -32.5 52.5t-9.5 60.5z" />
<glyph unicode="&#x201c;" horiz-adv-x="1063" d="M72 1099q0 120 101.5 242t244.5 185l44 -71q-113 -55 -177 -128t-74 -177h56q62 0 101 -14t63 -39q23 -24 32.5 -53t9.5 -60q0 -64 -51.5 -112t-121.5 -48q-110 0 -169 73t-59 202zM565 1099q0 120 101.5 242t244.5 185l44 -71q-113 -55 -177 -128t-74 -177h56 q62 0 101 -14t63 -39q23 -24 32.5 -53t9.5 -60q0 -64 -51.5 -112t-121.5 -48q-110 0 -169 73t-59 202z" />
<glyph unicode="&#x201d;" horiz-adv-x="1063" d="M97 1370q0 64 51.5 112t121.5 48q110 0 169 -73t59 -202q0 -120 -101.5 -242t-244.5 -185l-44 71q113 55 177 128t74 177h-56q-62 0 -101 14t-63 39q-23 24 -32.5 53t-9.5 60zM590 1370q0 64 51.5 112t121.5 48q110 0 169 -73t59 -202q0 -120 -101.5 -242t-244.5 -185 l-44 71q113 55 177 128t74 177h-56q-62 0 -101 14t-63 39q-23 24 -32.5 53t-9.5 60z" />
<glyph unicode="&#x201e;" horiz-adv-x="1063" d="M74 166q0 64 51.5 112t121.5 48q110 0 169 -73t59 -202q0 -120 -101.5 -242t-244.5 -185l-44 71q113 55 177 128t74 177h-56q-62 0 -101 14t-63 39q-23 24 -32.5 53t-9.5 60zM567 166q0 64 51.5 112t121.5 48q110 0 169 -73t59 -202q0 -120 -101.5 -242t-244.5 -185 l-44 71q113 55 177 128t74 177h-56q-62 0 -101 14t-63 39q-23 24 -32.5 53t-9.5 60z" />
<glyph unicode="&#x202f;" horiz-adv-x="373" />
<glyph unicode="&#x205f;" horiz-adv-x="467" />
<glyph unicode="&#x20ac;" horiz-adv-x="1465" d="M0 520l44 116h79q-1 15 -1.5 30t-0.5 30q0 13 1 42t3 52h-125l44 116h99q63 253 248.5 402t461.5 149q108 0 204 -28.5t163 -64.5l62 55h87l9 -518h-88q-75 237 -178 348t-246 111q-157 0 -236 -113t-103 -341h350l-44 -116h-312q-1 -13 -1 -29v-31q0 -24 0.5 -48 t1.5 -46h253l-44 -116h-198q28 -208 121.5 -313t260.5 -105q132 0 239.5 76t197.5 230l86 -52q-43 -88 -98 -157.5t-127 -119.5q-79 -55 -171.5 -86t-216.5 -31q-270 0 -454 152.5t-234 405.5h-137z" />
<glyph unicode="&#x2122;" horiz-adv-x="1940" d="M97 1216v203h679v-203h-48q-10 33 -40.5 82.5t-59.5 55.5q-10 2 -28.5 3t-39.5 1h-39v-508q0 -13 4.5 -26t20.5 -19q9 -3 33.5 -9.5t43.5 -6.5v-56h-373v56q21 1 45 5t32 7q16 6 20.5 18.5t4.5 24.5v514h-29q-15 0 -39 -1t-39 -3q-29 -5 -59.5 -55t-40.5 -83h-48z M872 733v56q16 2 47.5 7.5t47.5 16.5q17 13 23 36t6 86v335q0 24 -7.5 40t-21.5 28q-15 12 -37.5 17.5t-51.5 7.5v56h338l172 -451l140 366q8 21 15 45.5t10 39.5h323v-56q-22 -1 -44.5 -4t-36.5 -9q-12 -5 -17.5 -16t-5.5 -25v-463q0 -13 4 -25t19 -18q10 -4 36 -8.5 t45 -5.5v-56h-376v56q22 1 44 3.5t31 8.5q16 9 22 19t6 26v440h-22l-217 -531h-62l-210 541h-22v-357q0 -53 6.5 -80t22.5 -42q8 -7 40 -16.5t58 -11.5v-56h-325z" />
<glyph unicode="&#x25fc;" horiz-adv-x="990" d="M0 0v990h990v-990h-990z" />
</font>
</defs>
</svg>
