<?xml version="1.0" standalone="no"?>
<!DOCTYPE svg PUBLIC "-//W3C//DTD SVG 1.1//EN" "http://www.w3.org/Graphics/SVG/1.1/DTD/svg11.dtd" >
<svg xmlns="http://www.w3.org/2000/svg" xmlns:xlink="http://www.w3.org/1999/xlink" version="1.1">
<metadata></metadata>
<defs>
<font id="verdanabolditalic" horiz-adv-x="1456" >
<font-face units-per-em="2048" ascent="1639" descent="-409" />
<missing-glyph horiz-adv-x="700" />
<glyph horiz-adv-x="0" />
<glyph horiz-adv-x="682" />
<glyph unicode=" "  horiz-adv-x="700" />
<glyph unicode="&#x09;" horiz-adv-x="700" />
<glyph unicode="&#xa0;" horiz-adv-x="700" />
<glyph unicode="!" horiz-adv-x="824" d="M80 0l61 264h404l-61 -264h-404zM218 429l199 1060h418l-291 -1060h-326z" />
<glyph unicode="&#x22;" horiz-adv-x="1203" d="M303 967l76 589h346l-196 -589h-226zM826 967l76 589h346l-196 -589h-226z" />
<glyph unicode="#" horiz-adv-x="1776" d="M115 354l38 240h330l126 311h-293l38 239h353l140 345h245l-140 -345h263l141 345h245l-141 -345h255l-38 -239h-316l-127 -311h282l-38 -240h-342l-147 -354h-241l145 354h-264l-145 -354h-245l146 354h-270zM723 591h269l129 316h-268z" />
<glyph unicode="$" d="M48 88l68 292h45q70 -45 182 -77t239 -42l65 284q-231 54 -333 126t-102 198q0 208 154.5 326t460.5 148l54 233h174l-54 -231q91 -4 209.5 -26t183.5 -51l-67 -288h-44q-63 41 -149 68t-193 34l-61 -264q231 -51 335.5 -126t104.5 -209q0 -213 -165 -336t-464 -145 l-84 -363h-174l83 357q-116 1 -255 27t-213 65zM582 947q0 -39 39 -64.5t107 -37.5l55 237q-94 -7 -147.5 -43t-53.5 -92zM748 265q89 9 140.5 43t51.5 98q0 45 -29.5 71t-104.5 41z" />
<glyph unicode="%" horiz-adv-x="2605" d="M212 912q0 277 143.5 441t380.5 164q201 0 305.5 -91t104.5 -265q0 -278 -142 -446t-382 -168q-203 0 -306.5 92t-103.5 273zM505 925q0 -83 34 -124.5t103 -41.5q96 0 153.5 113.5t57.5 267.5q0 82 -34 123.5t-103 41.5q-90 0 -150.5 -108t-60.5 -272zM679 0l1043 1489 h271l-1043 -1489h-271zM1523 334q0 277 143.5 441t380.5 164q201 0 305.5 -91t104.5 -265q0 -278 -142 -446t-382 -168q-203 0 -306.5 92t-103.5 273zM1816 347q0 -83 34 -124.5t103 -41.5q96 0 153.5 113.5t57.5 267.5q0 82 -34 123.5t-103 41.5q-90 0 -150.5 -108 t-60.5 -272z" />
<glyph unicode="&#x26;" horiz-adv-x="1766" d="M80 354q0 86 28 158.5t79 132.5q49 58 118.5 104t149.5 85q-76 68 -109 134t-33 141q0 84 38 158t112 131q71 55 183.5 88t248.5 33q223 0 350 -75.5t127 -207.5q0 -60 -25 -123t-75 -115q-51 -54 -131 -100.5t-197 -81.5l249 -269l69 322h373l-24 -111 q-27 -123 -87.5 -225.5t-148.5 -179.5l311 -333l-4 -20h-476l-113 126q-134 -89 -260 -123t-228 -34q-242 0 -383.5 104t-141.5 281zM488 454q0 -102 62.5 -165.5t181.5 -63.5q61 0 111.5 15.5t109.5 54.5l-347 379q-58 -48 -88 -103t-30 -117zM693 1153q0 -48 35.5 -102 t97.5 -110q73 49 118.5 114t45.5 131q0 57 -31.5 89.5t-96.5 32.5q-72 0 -120.5 -40.5t-48.5 -114.5z" />
<glyph unicode="'" horiz-adv-x="680" d="M303 967l76 589h346l-196 -589h-226z" />
<glyph unicode="(" horiz-adv-x="1113" d="M152 269q0 350 171.5 688t474.5 599h370v-29q-146 -113 -270 -249.5t-215 -289.5q-92 -155 -143.5 -328t-51.5 -354q0 -205 54 -367.5t186 -321.5v-29h-354q-113 165 -167.5 321t-54.5 360z" />
<glyph unicode=")" horiz-adv-x="1113" d="M-53 -383q146 113 270 249.5t215 289.5q92 155 143.5 328t51.5 354q0 205 -54 367.5t-186 321.5v29h354q113 -165 167.5 -321t54.5 -360q0 -350 -171.5 -688t-474.5 -599h-370v29z" />
<glyph unicode="*" d="M305 836l355 209l-354 211l108 167l313 -213l-7 346h212l-8 -347l317 211l111 -166l-358 -208l359 -210l-111 -165l-320 218l11 -355h-213l8 346l-314 -210z" />
<glyph unicode="+" horiz-adv-x="1776" d="M240 528v268h533v528h274v-528h533v-268h-533v-528h-274v528h-533z" />
<glyph unicode="," horiz-adv-x="740" d="M-177 -370l371 763h390l-538 -763h-223z" />
<glyph unicode="-" horiz-adv-x="983" d="M100 518l66 288h763l-66 -288h-763z" />
<glyph unicode="." horiz-adv-x="740" d="M53 0l90 393h376l-90 -393h-376z" />
<glyph unicode="/" horiz-adv-x="1412" d="M-39 -324l1122 1880h320l-1125 -1880h-317z" />
<glyph unicode="0" d="M115 457q0 214 47 403.5t142 338.5q95 148 240.5 234t332.5 86q267 0 401.5 -122.5t134.5 -365.5q0 -206 -48 -402.5t-141 -339.5q-106 -160 -247.5 -240t-322.5 -80q-261 0 -400 118.5t-139 369.5zM501 472q0 -118 42 -173.5t132 -55.5q86 0 152 77.5t111 196.5 q42 111 65.5 245t23.5 254q0 117 -42.5 173t-126.5 56q-79 0 -148.5 -71t-119.5 -203q-44 -115 -66.5 -251.5t-22.5 -247.5z" />
<glyph unicode="1" d="M137 0l60 260h313l181 787h-313l56 243q69 0 139.5 9t117.5 29q52 23 90 62.5t56 102.5h332l-284 -1233h306l-60 -260h-994z" />
<glyph unicode="2" d="M55 0l57 246q166 106 312 209t247 185q156 126 229 226.5t73 192.5q0 87 -58 128.5t-160 41.5q-104 0 -212 -35.5t-206 -99.5h-32l74 331q74 30 223 61.5t282 31.5q241 0 369 -89t128 -265q0 -182 -96 -321.5t-305 -304.5q-103 -81 -196.5 -145t-162.5 -108h669l-66 -285 h-1169z" />
<glyph unicode="3" d="M34 81l70 324l39 -1q91 -65 204 -104t223 -39q161 0 251.5 60.5t90.5 172.5q0 47 -17.5 77t-56.5 47q-42 19 -106 24.5t-144 5.5h-82l57 264h85q205 0 286.5 44.5t81.5 135.5q0 72 -68.5 106t-189.5 34q-104 0 -218 -33t-204 -78l-37 1l69 321q89 30 221.5 53.5 t259.5 23.5q128 0 229 -19.5t173 -58.5q76 -41 117.5 -104t41.5 -158q0 -91 -31.5 -160.5t-84.5 -115.5q-51 -45 -117 -74t-129 -43l-3 -14q109 -18 182.5 -87t73.5 -179q0 -124 -56 -225.5t-151 -169.5q-99 -71 -224.5 -107.5t-280.5 -36.5q-181 0 -323 33.5t-232 79.5z " />
<glyph unicode="4" d="M34 343l65 282l896 864h391l-201 -874h203l-63 -272h-203l-80 -347h-367l80 347h-721zM395 615h423l122 528z" />
<glyph unicode="5" d="M48 59l76 329h42q97 -63 193 -94.5t204 -31.5q162 0 260.5 60t98.5 185q0 95 -81.5 142.5t-249.5 47.5q-74 0 -157 -14t-150 -34h-44l194 840h1059l-66 -285h-698l-56 -243q14 1 36 1h53q114 0 214 -21t178 -68t124 -122.5t46 -187.5q0 -153 -60.5 -266t-162.5 -185 q-101 -71 -236.5 -107t-288.5 -36q-186 0 -317.5 26.5t-210.5 63.5z" />
<glyph unicode="6" d="M132 490q0 225 65.5 412t187.5 325q119 135 297 212.5t391 77.5q80 0 180 -13.5t136 -22.5l-51 -291l-38 2q-23 13 -92.5 33.5t-157.5 20.5q-171 0 -291.5 -85t-183.5 -262q77 39 165.5 65t183.5 26q199 0 314 -103.5t115 -289.5q0 -271 -190.5 -450t-478.5 -179 q-123 0 -224.5 29t-174.5 92t-113 162t-40 239zM511 495q0 -140 46 -207t155 -67q101 0 173.5 89.5t72.5 228.5q0 104 -62 151.5t-179 47.5q-51 0 -99 -10.5t-79 -19.5q-11 -42 -19.5 -103t-8.5 -110z" />
<glyph unicode="7" d="M91 0l978 1214h-763l64 275h1167l-66 -286l-945 -1203h-435z" />
<glyph unicode="8" d="M64 340q0 151 91.5 257.5t281.5 169.5l1 6q-98 58 -146 122t-48 158q0 96 40.5 178.5t122.5 149.5q80 65 200 103.5t275 38.5q263 0 412 -92t149 -246q0 -124 -88 -223.5t-254 -159.5l-1 -6q114 -54 178 -128t64 -188q0 -231 -195 -372.5t-493 -141.5 q-273 0 -431.5 100.5t-158.5 273.5zM455 411q0 -90 67.5 -140t175.5 -50q100 0 177.5 57t77.5 146q0 52 -28 88.5t-119 82.5q-29 15 -88 39.5t-100 42.5q-83 -62 -123 -128t-40 -138zM633 1102q0 -46 26.5 -75.5t84.5 -58.5q28 -14 73.5 -33t106.5 -42q56 51 95 109t39 123 q0 69 -55.5 107.5t-141.5 38.5q-103 0 -165.5 -48.5t-62.5 -120.5z" />
<glyph unicode="9" d="M130 7l51 291l38 -2q24 -13 89 -33.5t161 -20.5q176 0 296 89t179 258q-91 -44 -164.5 -67.5t-184.5 -23.5q-202 0 -315.5 105t-113.5 288q0 276 195.5 452.5t473.5 176.5q121 0 222.5 -28.5t176.5 -92.5q75 -65 114 -165t39 -236q0 -219 -66 -411t-187 -326 q-124 -138 -295 -214t-393 -76q-86 0 -184 13.5t-132 22.5zM561 949q0 -104 62 -151.5t179 -47.5q45 0 93 9t85 21q12 49 20 101.5t8 111.5q0 140 -46 207t-155 67q-101 0 -173.5 -89.5t-72.5 -228.5z" />
<glyph unicode=":" horiz-adv-x="824" d="M96 0l90 393h376l-90 -393h-376zM264 730l90 393h376l-90 -393h-376z" />
<glyph unicode=";" horiz-adv-x="824" d="M-138 -370l371 763h390l-538 -763h-223zM264 730l90 393h376l-90 -393h-376z" />
<glyph unicode="&#x3c;" horiz-adv-x="1776" d="M226 548v228l1336 555v-287l-935 -383l935 -381v-287z" />
<glyph unicode="=" horiz-adv-x="1776" d="M271 265v268h1278v-268h-1278zM271 791v268h1278v-268h-1278z" />
<glyph unicode="&#x3e;" horiz-adv-x="1776" d="M258 -7v287l935 382l-935 382v287l1336 -555v-228z" />
<glyph unicode="?" horiz-adv-x="1263" d="M232 0l61 264h404l-61 -264h-404zM277 1128l71 305q81 34 198 60t253 26q235 0 363.5 -94t128.5 -264q0 -173 -131 -311.5t-411 -241.5l-49 -208h-352l80 346q224 57 338.5 144t114.5 197q0 80 -54.5 118.5t-155.5 38.5q-79 0 -169.5 -31t-184.5 -85h-40z" />
<glyph unicode="@" horiz-adv-x="1974" d="M157 499q0 201 75.5 384.5t208.5 325.5q131 140 313.5 224.5t389.5 84.5q328 0 523.5 -199t195.5 -514q0 -178 -64.5 -360.5t-159.5 -305.5h-527v78q-62 -40 -113 -61.5t-136 -21.5q-141 0 -227 98.5t-86 272.5q0 261 148 448t353 187q66 0 119.5 -21t89.5 -55l12 62h232 l-159 -816h181q67 111 99 236.5t32 253.5q0 250 -138.5 393.5t-398.5 143.5q-143 0 -278.5 -61.5t-242.5 -173.5q-105 -109 -167.5 -259.5t-62.5 -322.5q0 -141 43 -247.5t115 -175.5q75 -72 174.5 -108.5t216.5 -36.5q86 0 201.5 17t192.5 39l-28 -194q-97 -21 -190 -32 t-202 -11q-328 0 -531.5 196.5t-203.5 531.5zM801 524q0 -107 36 -153.5t114 -46.5q46 0 89 21t87 59l97 499q-31 20 -70 32.5t-90 12.5q-110 0 -186.5 -122.5t-76.5 -301.5z" />
<glyph unicode="A" horiz-adv-x="1590" d="M-93 0l893 1489h444l207 -1489h-387l-34 304h-548l-174 -304h-401zM634 571h367l-60 535z" />
<glyph unicode="B" horiz-adv-x="1560" d="M59 0l344 1489h543q269 0 411 -88.5t142 -248.5q0 -136 -74.5 -224.5t-227.5 -133.5l-2 -8q121 -35 183.5 -101t62.5 -186q0 -235 -192.5 -367t-544.5 -132h-645zM506 273h194q168 0 259 55t91 161q0 82 -62 118.5t-195 36.5h-201zM651 901h175q126 0 196.5 48.5 t70.5 141.5q0 66 -52 95.5t-144 29.5h-173z" />
<glyph unicode="C" horiz-adv-x="1482" d="M118 545q0 219 72.5 397t199.5 308q124 126 297.5 197t364.5 71q154 0 286 -31.5t238 -92.5l-88 -361h-44q-95 102 -189 150t-221 48q-223 0 -367.5 -179t-144.5 -456q0 -178 80 -258t234 -80q138 0 259 55.5t229 141.5h40l-87 -356q-45 -18 -105 -43.5t-115 -41.5 q-72 -21 -134.5 -32t-174.5 -11q-302 0 -466 148.5t-164 425.5z" />
<glyph unicode="D" horiz-adv-x="1700" d="M59 0l344 1489h482q213 0 343 -33t210 -89q110 -76 167.5 -189.5t57.5 -269.5q0 -253 -133 -467t-341 -328q-126 -68 -263 -90.5t-328 -22.5h-539zM507 273h35h124q66 0 107 5q53 5 95.5 16t93.5 37q144 74 221.5 221t77.5 321q0 102 -38 175.5t-116 118.5 q-36 20 -73.5 30.5t-85.5 15.5q-46 4 -105 4h-103h-13z" />
<glyph unicode="E" horiz-adv-x="1399" d="M59 0l344 1489h1079l-65 -282h-695l-62 -266h645l-66 -283h-645l-87 -376h695l-64 -282h-1079z" />
<glyph unicode="F" horiz-adv-x="1332" d="M59 0l344 1489h1068l-67 -288h-684l-64 -277h634l-66 -288h-634l-147 -636h-384z" />
<glyph unicode="G" horiz-adv-x="1661" d="M118 545q0 430 277 701.5t703 271.5q161 0 298.5 -27.5t285.5 -104.5l-85 -349h-43q-120 114 -227 158.5t-236 44.5q-131 0 -237 -53.5t-181 -144.5q-71 -86 -111 -204t-40 -247q0 -179 98 -263.5t319 -84.5q22 0 48 1t48 3l68 292h-297l65 281h687l-170 -735 q-133 -46 -283.5 -81t-310.5 -35q-317 0 -496.5 150t-179.5 426z" />
<glyph unicode="H" horiz-adv-x="1715" d="M59 0l344 1489h386l-127 -548h565l127 548h386l-344 -1489h-386l152 658h-565l-152 -658h-386z" />
<glyph unicode="I" horiz-adv-x="1118" d="M-7 0l61 264h243l222 961h-243l61 264h872l-61 -264h-243l-222 -961h243l-61 -264h-872z" />
<glyph unicode="J" horiz-adv-x="1137" d="M-86 6l71 308h36q43 -17 91.5 -33t129.5 -16q153 0 229 73t124 284l137 593h-340l63 274h726l-231 -998q-61 -262 -229 -388t-460 -126q-107 0 -193 7.5t-154 21.5z" />
<glyph unicode="K" horiz-adv-x="1579" d="M59 0l343 1489h386l-151 -656l672 656h456l-752 -693l453 -796h-423l-335 603l-155 -135l-108 -468h-386z" />
<glyph unicode="L" horiz-adv-x="1305" d="M59 0l344 1489h386l-277 -1201h689l-67 -288h-1075z" />
<glyph unicode="M" horiz-adv-x="1941" d="M59 0l344 1489h441l163 -747l506 747h453l-344 -1489h-384l225 974l-409 -624h-265l-132 665l-234 -1015h-364z" />
<glyph unicode="N" horiz-adv-x="1734" d="M59 0l344 1489h430l374 -862l198 862h354l-344 -1489h-327l-437 1031l-238 -1031h-354z" />
<glyph unicode="O" horiz-adv-x="1741" d="M118 560q0 194 66 369t189 308q120 129 297 206t386 77q306 0 478.5 -158t172.5 -427q0 -183 -62 -360t-180 -309q-129 -144 -301 -220.5t-396 -76.5q-305 0 -477.5 157.5t-172.5 433.5zM522 589q0 -171 78.5 -258t217.5 -87q96 0 185 47.5t155 135.5q68 89 106.5 206.5 t38.5 270.5q0 160 -76.5 250.5t-218.5 90.5q-93 0 -177.5 -42.5t-155.5 -129.5q-69 -83 -111 -206.5t-42 -277.5z" />
<glyph unicode="P" horiz-adv-x="1501" d="M59 0l344 1489h535q146 0 254.5 -20t187.5 -69q78 -49 119 -127.5t41 -195.5q0 -266 -220.5 -429t-616.5 -163h-146l-112 -485h-386zM622 765h138q175 0 272.5 71.5t97.5 203.5q0 87 -63 129t-187 42h-155z" />
<glyph unicode="Q" horiz-adv-x="1741" d="M118 560q0 194 66 369t189 308q120 129 297 206t386 77q306 0 478.5 -158t172.5 -427q0 -139 -36 -279t-112 -263q-73 -118 -183 -213.5t-249 -147.5q-4 -14 -6 -33.5t-2 -36.5q0 -68 42.5 -98.5t145.5 -30.5q43 0 100.5 13.5t83.5 25.5h38l-61 -264q-59 -13 -120 -23 t-169 -10q-204 0 -308.5 79t-104.5 228q0 25 2.5 46t5.5 41h-3h-3q-305 0 -477.5 157.5t-172.5 433.5zM522 589q0 -171 78.5 -258t217.5 -87q96 0 185 47.5t155 135.5q68 89 106.5 206.5t38.5 270.5q0 160 -76.5 250.5t-218.5 90.5q-93 0 -177.5 -42.5t-155.5 -129.5 q-69 -83 -111 -206.5t-42 -277.5z" />
<glyph unicode="R" horiz-adv-x="1602" d="M59 0l344 1489h581q273 0 422 -92.5t149 -282.5q0 -179 -109 -301t-296 -184l344 -629h-429l-280 546h-216l-126 -546h-384zM631 814h189q153 0 237 62.5t84 173.5q0 90 -57.5 127.5t-169.5 37.5h-190z" />
<glyph unicode="S" horiz-adv-x="1455" d="M7 88l77 357h42q103 -94 242 -145.5t299 -51.5q164 0 241 44.5t77 127.5q0 31 -12.5 53.5t-48.5 44.5t-98.5 43.5t-161.5 49.5q-109 30 -195.5 65t-147.5 83q-61 49 -92.5 113t-31.5 153q0 224 197.5 357.5t540.5 133.5q165 0 311.5 -27t248.5 -73l-73 -343h-41 q-78 72 -205.5 120.5t-278.5 48.5q-148 0 -229 -43t-81 -119q0 -35 12 -58t49 -45q32 -20 101 -43.5t162 -48.5q250 -67 357 -157t107 -244q0 -129 -58 -227t-160 -159q-107 -65 -243 -95t-308 -30q-191 0 -340.5 33t-258.5 82z" />
<glyph unicode="T" horiz-adv-x="1396" d="M190 1201l66 288h1314l-66 -288h-464l-277 -1201h-386l277 1201h-464z" />
<glyph unicode="U" horiz-adv-x="1663" d="M147 396q0 44 7 89t15 82l214 922h388l-214 -923q-7 -28 -11.5 -61.5t-4.5 -55.5q0 -94 56.5 -142.5t187.5 -48.5q127 0 205.5 70t112.5 218l219 943h388l-216 -930q-73 -309 -247 -448.5t-504 -139.5q-294 0 -445 105.5t-151 319.5z" />
<glyph unicode="V" horiz-adv-x="1564" d="M238 1489h393l119 -1063l593 1063h411l-887 -1489h-430z" />
<glyph unicode="W" horiz-adv-x="2311" d="M280 1489h401l3 -1025l500 1025h383l45 -1025l456 1025h391l-724 -1489h-412l-64 987l-483 -987h-428z" />
<glyph unicode="X" horiz-adv-x="1564" d="M-106 0l716 768l-361 721h418l219 -469l435 469h425l-701 -742l365 -747h-419l-223 495l-450 -495h-424z" />
<glyph unicode="Y" horiz-adv-x="1509" d="M224 1489h411l191 -583l445 583h444l-759 -913l-133 -576h-386l129 558z" />
<glyph unicode="Z" horiz-adv-x="1417" d="M-42 0l64 274l984 932h-733l65 283h1175l-65 -279l-981 -927h808l-66 -283h-1251z" />
<glyph unicode="[" horiz-adv-x="1113" d="M27 -392l450 1948h668l-56 -240h-355l-338 -1468h355l-56 -240h-668z" />
<glyph unicode="\" horiz-adv-x="1412" d="M369 1556h300l458 -1880h-297z" />
<glyph unicode="]" horiz-adv-x="1113" d="M-23 -392l56 240h355l338 1468h-355l56 240h668l-450 -1948h-668z" />
<glyph unicode="^" horiz-adv-x="1776" d="M245 640l550 849h249l584 -847h-320l-388 567l-357 -569h-318z" />
<glyph unicode="_" d="M-226 -350l48 211h1488l-48 -211h-1488z" />
<glyph unicode="`" d="M553 1656v20h341l171 -393h-226z" />
<glyph unicode="a" horiz-adv-x="1368" d="M19 253q0 133 63 225.5t187 147.5q116 52 276.5 75t347.5 34q1 6 4 19.5t3 30.5q0 71 -66 99.5t-197 28.5q-89 0 -196.5 -30t-161.5 -50h-33l53 266q63 16 195 36t263 20q264 0 387.5 -69t123.5 -214q0 -20 -3.5 -52t-9.5 -56l-176 -764h-358l27 119q-34 -22 -82 -53 t-89 -49q-56 -23 -105 -35t-136 -12q-140 0 -228.5 78.5t-88.5 204.5zM395 311q0 -58 42.5 -81.5t123.5 -23.5q53 0 113.5 24.5t113.5 62.5l55 237q-96 -8 -180 -19t-143 -32q-61 -22 -93 -62t-32 -106z" />
<glyph unicode="b" horiz-adv-x="1432" d="M40 0l359 1556h362l-127 -550q97 67 184.5 107.5t195.5 40.5q174 0 263.5 -103.5t89.5 -286.5q0 -153 -49.5 -297t-135.5 -251q-88 -109 -206 -173.5t-261 -64.5q-94 0 -168.5 19t-132.5 59l-27 -56h-347zM461 258q35 -14 74 -22.5t88 -8.5q167 0 265 131.5t98 338.5 q0 94 -41 143t-142 49q-53 0 -104 -18.5t-108 -48.5z" />
<glyph unicode="c" horiz-adv-x="1205" d="M74 441q0 151 57.5 280.5t161.5 226.5q102 95 249 150.5t318 55.5q103 0 204.5 -23t188.5 -67l-76 -307h-51q-59 71 -133.5 105.5t-167.5 34.5q-170 0 -273 -120.5t-103 -300.5q0 -125 63.5 -187t197.5 -62q104 0 189.5 42.5t146.5 94.5h51l-76 -307q-108 -47 -189.5 -67 t-211.5 -20q-115 0 -215.5 28.5t-175.5 88.5q-73 59 -114 148t-41 206z" />
<glyph unicode="d" horiz-adv-x="1432" d="M69 376q0 160 51.5 300.5t141.5 248.5q88 105 208 167t251 62q92 0 160 -18.5t140 -57.5l111 478h362l-360 -1556h-362l27 117q-52 -33 -91.5 -59.5t-87.5 -48.5q-45 -20 -88.5 -30t-104.5 -10q-163 0 -260.5 106t-97.5 301zM447 429q0 -101 47 -147t143 -46 q49 0 103.5 22t103.5 52l127 551q-29 14 -76 25.5t-83 11.5q-86 0 -155 -38t-117 -104q-43 -59 -68 -150.5t-25 -176.5z" />
<glyph unicode="e" horiz-adv-x="1360" d="M75 448q0 153 51 281t147 225q92 94 230 149t303 55q251 0 378.5 -101.5t127.5 -299.5q0 -68 -13.5 -133t-35.5 -129h-834v-11v-12q0 -117 82 -183t251 -66q118 0 223.5 40t183.5 89h40l-67 -289q-105 -46 -221 -69.5t-247 -23.5q-287 0 -443 127t-156 351zM464 706h485 q3 18 4.5 33t1.5 31q0 79 -49 121t-141 42q-111 0 -186.5 -60t-114.5 -167z" />
<glyph unicode="f" horiz-adv-x="865" d="M67 0l205 886h-154l54 237h154l7 29q46 203 168 308.5t361 105.5q88 0 153 -5.5t112 -14.5l-59 -254h-27q-23 8 -65.5 16.5t-78.5 8.5q-100 0 -145.5 -39t-73.5 -147l-2 -8h278l-54 -237h-266l-205 -886h-362z" />
<glyph unicode="g" horiz-adv-x="1432" d="M-2 -375l55 276h44q83 -32 168 -51t151 -19q95 0 165 17.5t110 50.5q43 35 68.5 86t41.5 125l5 21q-78 -53 -155 -84t-174 -31q-189 0 -295.5 95t-106.5 287q0 331 187 543.5t454 212.5q96 0 174.5 -23t126.5 -58l25 50h351l-226 -994q-37 -160 -105 -266t-165 -169 q-100 -65 -217 -91t-263 -26q-121 0 -232 14.5t-187 33.5zM454 467q0 -86 42 -134t151 -48q53 0 107.5 20.5t102.5 48.5l114 509q-29 13 -76.5 24.5t-83.5 11.5q-161 0 -259 -121t-98 -311z" />
<glyph unicode="h" horiz-adv-x="1459" d="M40 0l359 1556h362l-128 -557q110 73 202 114t202 41q153 0 236 -74.5t83 -210.5q0 -24 -4 -62t-13 -76l-169 -731h-364l129 557q14 64 22 108t8 79q0 67 -33.5 96.5t-121.5 29.5q-43 0 -99 -18.5t-125 -55.5l-184 -796h-362z" />
<glyph unicode="i" horiz-adv-x="700" d="M40 0l260 1123h362l-260 -1123h-362zM327 1283l63 273h382l-63 -273h-382z" />
<glyph unicode="j" horiz-adv-x="825" d="M-280 -397l59 258h28q33 -12 66.5 -18t74.5 -6q95 1 149 50.5t81 168.5l190 823h-213l57 244h575l-259 -1119q-46 -196 -178.5 -311.5t-339.5 -115.5q-101 0 -175 8t-115 18zM439 1283l63 273h382l-63 -273h-382z" />
<glyph unicode="k" horiz-adv-x="1374" d="M41 0l359 1556h362l-214 -929l502 496h415l-520 -489l300 -634h-379l-221 496l-159 -142l-83 -354h-362z" />
<glyph unicode="l" horiz-adv-x="700" d="M40 0l360 1556h362l-360 -1556h-362z" />
<glyph unicode="m" horiz-adv-x="2167" d="M40 0l260 1123h362l-29 -124q110 73 198.5 114t191.5 41q111 0 187 -49.5t106 -145.5q134 97 240 146t205 49q148 0 226 -73t78 -208q0 -31 -4.5 -67t-13.5 -75l-169 -731h-364l130 561q13 58 23.5 111t10.5 86q0 58 -32 85t-114 27q-39 0 -88.5 -18.5t-119.5 -55.5 l-184 -796h-364l130 561q11 49 22 106t11 87q0 61 -30.5 88.5t-113.5 27.5q-43 0 -94 -20t-115 -54l-184 -796h-362z" />
<glyph unicode="n" horiz-adv-x="1459" d="M40 0l259 1123h362l-29 -124q111 73 202.5 114t201.5 41q151 0 235 -73t84 -212q0 -30 -4 -65t-13 -73l-168 -731h-364l128 557q14 62 22 106t8 82q0 65 -33 95t-121 30q-43 0 -99 -18.5t-126 -55.5l-183 -796h-362z" />
<glyph unicode="o" horiz-adv-x="1404" d="M74 417q0 150 50 285t148 238q95 101 233.5 159.5t310.5 58.5q252 0 385.5 -118.5t133.5 -327.5q0 -158 -53 -296t-149 -237q-100 -103 -232 -158.5t-308 -55.5q-251 0 -385 120t-134 332zM449 424q0 -115 51 -164.5t140 -49.5q65 0 125 35.5t102 98.5q46 70 69.5 153 t23.5 202q0 103 -45 158.5t-143 55.5q-76 0 -133.5 -37t-101.5 -105q-41 -63 -64.5 -156t-23.5 -191z" />
<glyph unicode="p" horiz-adv-x="1432" d="M-56 -412l355 1535h362l-27 -117q102 70 188.5 109t191.5 39q170 0 261 -103.5t91 -286.5q0 -155 -50.5 -300.5t-137.5 -250.5q-91 -111 -205.5 -173t-256.5 -62q-90 0 -165.5 20.5t-136.5 57.5l-108 -468h-362zM461 257q32 -14 74.5 -21.5t87.5 -7.5q91 0 161 39 t113 103q43 63 66 147.5t23 183.5q0 91 -40 139.5t-143 48.5q-53 0 -104 -18.5t-108 -48.5z" />
<glyph unicode="q" horiz-adv-x="1432" d="M69 376q0 168 55 311t146 248q91 104 210 161.5t241 57.5q91 0 162.5 -21.5t134.5 -59.5l25 50h351l-355 -1535h-362l121 522q-43 -27 -92.5 -57.5t-85.5 -45.5q-51 -22 -96 -30t-97 -8q-163 0 -260.5 106t-97.5 301zM447 431q0 -93 41 -144t149 -51q49 0 103.5 22 t103.5 52l127 551q-29 14 -76 25.5t-83 11.5q-96 0 -162.5 -41t-109.5 -103q-44 -61 -68.5 -146t-24.5 -177z" />
<glyph unicode="r" horiz-adv-x="1018" d="M40 0l260 1123h362l-38 -165q102 75 203.5 122t204.5 47q19 0 42.5 -1t41.5 -3l-80 -343h-32q-24 8 -68 12t-87 4q-71 0 -137 -10.5t-136 -33.5l-174 -752h-362z" />
<glyph unicode="s" horiz-adv-x="1215" d="M-13 59l69 296h33q22 -19 55.5 -42t95.5 -48q53 -23 123 -39.5t151 -16.5q121 0 181.5 28t60.5 80q0 40 -43 61t-178 52q-229 53 -313.5 128t-84.5 187q0 190 170 299.5t460 109.5q126 0 252 -25.5t185 -54.5l-66 -284h-31q-71 55 -171.5 89.5t-206.5 34.5 q-115 0 -176.5 -27.5t-61.5 -84.5q0 -44 53 -67.5t167 -48.5q212 -46 305.5 -116t93.5 -196q0 -188 -172 -296.5t-465 -108.5q-144 0 -279 27t-207 63z" />
<glyph unicode="t" horiz-adv-x="933" d="M116 886l55 237h148l74 321h361l-74 -321h338l-55 -237h-338l-93 -405q-10 -42 -19 -84.5t-9 -72.5q0 -60 33.5 -83.5t103.5 -23.5q28 0 73.5 10.5t72.5 23.5h30l-56 -241q-61 -15 -128.5 -23.5t-161.5 -8.5q-187 0 -267 61.5t-80 182.5q0 32 5 62t13 70l122 532h-148z " />
<glyph unicode="u" horiz-adv-x="1459" d="M104 250q0 38 4 70.5t13 71.5l169 731h364l-129 -557q-15 -64 -22.5 -110t-7.5 -78q0 -66 32 -95.5t121 -29.5q44 0 101.5 19t124.5 55l184 796h362l-260 -1123h-362l29 124q-54 -35 -105.5 -65.5t-97.5 -48.5q-58 -24 -106 -32.5t-95 -8.5q-148 0 -233.5 71t-85.5 210z " />
<glyph unicode="v" horiz-adv-x="1329" d="M146 1123h371l82 -773l433 773h387l-693 -1123h-410z" />
<glyph unicode="w" horiz-adv-x="2006" d="M175 1123h368l33 -774l399 774h319l69 -774l348 774h380l-587 -1123h-382l-75 757l-379 -757h-387z" />
<glyph unicode="x" horiz-adv-x="1370" d="M-104 0l583 571l-316 552h388l179 -342l323 342h416l-575 -563l320 -560h-388l-181 346l-334 -346h-415z" />
<glyph unicode="y" horiz-adv-x="1333" d="M59 -412l286 434l-185 1101h368l97 -736l428 736h380l-979 -1535h-395z" />
<glyph unicode="z" horiz-adv-x="1222" d="M-50 0l52 221l738 649h-565l59 253h1020l-51 -217l-729 -648h591l-60 -258h-1055z" />
<glyph unicode="{" d="M130 459l52 246h70q184 0 275 73.5t127 243.5l31 147q41 198 170.5 292.5t336.5 94.5h274l-48 -224h-114q-70 0 -117 -9.5t-87 -37.5q-39 -27 -64 -73t-42 -126l-25 -119q-34 -157 -124.5 -244.5t-258.5 -138.5l-6 -24q100 -41 160 -110t60 -178q0 -50 -21.5 -150 t-21.5 -136q0 -83 45.5 -118.5t172.5 -35.5h125l-48 -224h-266q-163 0 -259 71t-96 208q0 67 28.5 184t28.5 186q0 102 -66 152t-222 50h-70z" />
<glyph unicode="|" horiz-adv-x="1113" d="M434 -392v1948h291v-1948h-291z" />
<glyph unicode="}" d="M-2 -392l48 224h114q70 0 117 9.5t87 37.5q39 27 64 73t42 126l25 119q33 156 124 244t259 139l6 24q-100 41 -160 110t-60 178q0 50 21.5 150t21.5 136q0 83 -45.5 118.5t-172.5 35.5h-125l48 224h266q163 0 259 -71t96 -208q0 -67 -28.5 -184t-28.5 -186 q0 -102 66 -152t222 -50h70l-52 -246h-70q-184 0 -275 -73.5t-127 -243.5l-31 -147q-42 -198 -171 -292.5t-336 -94.5h-274z" />
<glyph unicode="~" horiz-adv-x="1776" d="M175 325q0 338 112 509t321 171q68 0 123 -17.5t100 -45.5q42 -28 76.5 -63t68.5 -75q24 -29 52.5 -66.5t59.5 -70.5q33 -34 59.5 -49.5t53.5 -15.5q57 0 90 29t49 82q17 53 23 128t8 166h270q-1 -328 -109.5 -504t-323.5 -176q-71 0 -124.5 16.5t-96.5 44.5 q-42 29 -75.5 63.5t-69.5 76.5q-24 29 -56.5 70.5t-55.5 65.5q-29 31 -55.5 48.5t-59.5 17.5q-60 0 -91 -31t-48 -80q-18 -54 -23.5 -135t-7.5 -159h-270z" />
<glyph unicode="&#xa1;" horiz-adv-x="824" d="M73 0l291 1060h326l-199 -1060h-418zM363 1225l61 264h404l-61 -264h-404z" />
<glyph unicode="&#xa2;" d="M168 423q0 160 58 293t161 230q100 93 239.5 148.5t300.5 65.5l73 315h174l-74 -319q107 -12 182.5 -39.5t105.5 -42.5l-68 -295h-49q-33 34 -84.5 72.5t-147.5 57.5l-156 -676q102 15 179 57.5t113 71.5h49l-68 -295q-57 -21 -145 -46.5t-181 -33.5l-80 -348h-174 l79 345q-233 16 -360 131t-127 308zM537 474q0 -100 45.5 -159t135.5 -79l155 672q-75 -18 -137 -60t-108 -103q-42 -56 -66.5 -129t-24.5 -142z" />
<glyph unicode="&#xa3;" d="M33 0l60 281q133 34 190.5 108.5t86.5 213.5h-176l46 217h176l53 251q43 208 203.5 327.5t428.5 119.5q137 0 222.5 -16.5t135.5 -31.5l-67 -312h-45q-59 43 -122 64.5t-127 21.5q-118 0 -186.5 -58t-94.5 -178l-40 -188h437l-46 -217h-437q-20 -90 -83.5 -177.5 t-151.5 -129.5l-2 -11h771l-61 -285h-1171z" />
<glyph unicode="&#xa4;" d="M196 273l210 208q-23 42 -34 84.5t-11 98.5q0 55 11.5 100.5t38.5 91.5l-208 210l156 157l209 -209q41 23 87.5 34t100.5 11q56 0 99 -11.5t83 -32.5l210 208l162 -162l-209 -208q28 -49 38.5 -93.5t10.5 -93.5q0 -55 -12 -101t-35 -85l207 -207l-160 -161l-208 207 q-42 -24 -86.5 -36t-100.5 -12q-53 0 -98 11.5t-89 36.5l-209 -209zM583 667q0 -69 49.5 -118.5t119.5 -49.5t119 49.5t49 118.5q0 71 -49 120t-119 49t-119.5 -49t-49.5 -120z" />
<glyph unicode="&#xa5;" d="M115 113l50 217h314l18 78h-313l50 217h315l12 50l-306 814h390l160 -470l370 470h432l-682 -814l-12 -50h315l-50 -217h-313l-18 -78h312l-50 -217h-312l-26 -113h-368l26 113h-314z" />
<glyph unicode="&#xa6;" horiz-adv-x="1113" d="M456 -392v798h291v-798h-291zM456 758v798h291v-798h-291z" />
<glyph unicode="&#xa7;" d="M47 -319l57 288l34 -2q64 -44 160 -74.5t206 -30.5q111 0 178.5 31.5t67.5 89.5q0 23 -8 41t-38 39q-24 18 -90.5 48t-145.5 63q-182 75 -257 147t-75 190q0 68 25 122t61 96q40 46 91.5 81t106.5 62l1 7q-72 49 -104 106t-32 123q0 181 178 296t464 115q132 0 261 -21.5 t205 -49.5l-57 -288l-32 1q-61 41 -151.5 72.5t-199.5 31.5q-125 0 -188.5 -32t-63.5 -88q0 -31 9.5 -48t44.5 -40q30 -19 85 -43t145 -59q166 -65 249.5 -140t83.5 -192q0 -116 -76 -210.5t-208 -156.5l-1 -7q53 -34 93.5 -89.5t40.5 -135.5q0 -86 -43.5 -163.5 t-124.5 -131.5q-87 -59 -207.5 -90t-275.5 -31q-109 0 -249 21t-220 52zM505 574q0 -48 34 -79.5t102 -61.5q28 -12 64.5 -27.5t95.5 -36.5q69 43 108.5 86.5t39.5 103.5q0 44 -35 75.5t-101 60.5q-25 11 -64.5 26.5t-94.5 35.5q-64 -33 -106.5 -83.5t-42.5 -99.5z" />
<glyph unicode="&#xa8;" d="M419 1283l63 273h297l-63 -273h-297zM956 1283l63 273h297l-63 -273h-297z" />
<glyph unicode="&#xa9;" horiz-adv-x="1974" d="M165 655q0 358 253.5 611.5t611.5 253.5t611.5 -253.5t253.5 -611.5t-253.5 -611.5t-611.5 -253.5t-611.5 253.5t-253.5 611.5zM356 655q0 -279 197.5 -479t476.5 -200t476.5 200t197.5 479t-197.5 479t-476.5 200t-476.5 -200t-197.5 -479zM600 660q0 207 133.5 332.5 t342.5 125.5q80 0 154 -21t134 -50v-206h-21q-74 54 -137 77.5t-126 23.5q-113 0 -171.5 -71t-58.5 -211q0 -135 60.5 -207t169.5 -72q81 0 150.5 32.5t112.5 68.5h21v-205q-78 -36 -150 -54t-138 -18q-222 0 -349 124.5t-127 330.5z" />
<glyph unicode="&#xaa;" horiz-adv-x="1224" d="M206 799q0 114 52 184.5t143 113.5q88 41 210.5 59.5t275.5 27.5q1 5 3.5 16.5t2.5 23.5q0 57 -51.5 80t-153.5 23q-69 0 -150.5 -23.5t-128.5 -40.5h-26l41 213q55 14 149 29t208 15q195 0 297 -52.5t102 -173.5q0 -16 -2.5 -40.5t-7.5 -45.5l-137 -612h-280l21 96 q-27 -18 -64 -43t-69 -39q-44 -19 -82.5 -28.5t-105.5 -9.5q-109 0 -178 63t-69 164zM499 845q0 -43 29.5 -63.5t100.5 -20.5q42 0 90 20.5t87 49.5l42 189q-88 -8 -143 -14.5t-108 -25.5q-45 -17 -71.5 -50t-26.5 -85z" />
<glyph unicode="&#xab;" horiz-adv-x="1740" d="M224 591l31 135l708 462l-75 -327l-353 -223l251 -223l-67 -287zM851 591l31 135l708 462l-75 -327l-353 -223l251 -223l-67 -287z" />
<glyph unicode="&#xac;" horiz-adv-x="1776" d="M231 557v269h1329v-797h-285v528h-1044z" />
<glyph unicode="&#xad;" horiz-adv-x="983" d="M100 518l66 288h763l-66 -288h-763z" />
<glyph unicode="&#xae;" horiz-adv-x="1974" d="M165 655q0 358 253.5 611.5t611.5 253.5t611.5 -253.5t253.5 -611.5t-253.5 -611.5t-611.5 -253.5t-611.5 253.5t-253.5 611.5zM356 655q0 -279 197.5 -479t476.5 -200t476.5 200t197.5 479t-197.5 479t-476.5 200t-476.5 -200t-197.5 -479zM686 245v861h327q91 0 146 -7 t109 -36q59 -33 86.5 -80t27.5 -117q0 -94 -53 -155t-138 -95l325 -371h-271l-261 316h-86v-316h-212zM898 714h51q53 0 91 7.5t61 25.5q23 17 34 42t11 61q0 27 -11.5 49.5t-38.5 36.5q-25 14 -57.5 17.5t-73.5 3.5h-67v-243z" />
<glyph unicode="&#xaf;" d="M230 1628l48 211h1488l-48 -211h-1488z" />
<glyph unicode="&#xb0;" horiz-adv-x="1203" d="M288 1102q0 176 122.5 297t299.5 121q178 0 300 -121t122 -297t-122.5 -297t-299.5 -121t-299.5 121t-122.5 297zM516 1102q0 -85 56.5 -141.5t137.5 -56.5q83 0 138.5 58t55.5 140t-55.5 140.5t-138.5 58.5q-82 0 -138 -58t-56 -141z" />
<glyph unicode="&#xb1;" horiz-adv-x="1776" d="M238 0v268h534v416h-534v268h533v529h274v-529h533v-268h-534v-416h534v-268h-1340z" />
<glyph unicode="&#xb2;" horiz-adv-x="1224" d="M200 566l44 189q92 49 198 113t157 101q96 68 139.5 117.5t43.5 109.5q0 53 -37 81.5t-109 28.5q-57 0 -114 -20.5t-143 -64.5h-23l54 237q84 27 163 44t166 17q179 0 271 -65t92 -183q0 -75 -26 -136.5t-80 -113.5q-55 -54 -147 -116.5t-206 -132.5h412l-48 -206h-807z " />
<glyph unicode="&#xb3;" horiz-adv-x="1224" d="M218 600l42 216h22q38 -23 120.5 -46t161.5 -23q96 0 147.5 27.5t51.5 83.5q0 40 -31 61t-111 21h-153l38 195h137q89 0 129 29t40 74q0 41 -39 60.5t-128 19.5q-60 0 -134.5 -23.5t-128.5 -49.5h-23l41 213q74 24 155.5 42t179.5 18q202 0 293.5 -58.5t91.5 -164.5 q0 -93 -60.5 -153.5t-160.5 -90.5l-2 -8q73 -20 116 -62t43 -122q0 -147 -128.5 -232t-325.5 -85q-127 0 -228.5 17.5t-155.5 40.5z" />
<glyph unicode="&#xb4;" d="M614 1283l313 393h381v-20l-438 -373h-256z" />
<glyph unicode="&#xb5;" horiz-adv-x="1477" d="M-57 -412l355 1535h362l-185 -799q40 -38 89 -52t103 -14q50 0 110.5 15.5t112.5 50.5l185 799h362l-260 -1123h-318v80h-7q-61 -44 -113 -69.5t-122 -25.5q-64 0 -112.5 22t-87.5 65l-112 -484h-362z" />
<glyph unicode="&#xb6;" d="M232 975q0 239 180.5 376.5t510.5 137.5h542l-427 -1852h-202l386 1672h-151l-386 -1672h-212l220 956q-226 13 -343.5 115.5t-117.5 266.5z" />
<glyph unicode="&#xb7;" horiz-adv-x="740" d="M161 464l90 393h374l-90 -393h-374z" />
<glyph unicode="&#xb8;" d="M221 -399l46 200h23q25 -12 63 -23.5t87 -11.5q39 0 79.5 10.5t65.5 36.5q30 30 48.5 75.5t23.5 131.5h233q-17 -235 -132 -339t-329 -104q-38 0 -106.5 7t-101.5 17z" />
<glyph unicode="&#xb9;" horiz-adv-x="1224" d="M259 566l43 188h217l99 426h-226l41 178q114 0 191 30.5t102 104.5h238l-171 -739h207l-43 -188h-698z" />
<glyph unicode="&#xba;" horiz-adv-x="1224" d="M207 927q0 128 41.5 234t112.5 185q73 80 181.5 127t242.5 47q197 0 301 -95t104 -262q0 -125 -41.5 -237t-115.5 -190q-77 -81 -182.5 -126t-239.5 -45q-201 0 -302.5 98t-101.5 264zM499 933q0 -93 40 -132.5t109 -39.5q104 0 177 108t73 284q0 94 -40 132.5t-107 38.5 q-113 0 -182.5 -113.5t-69.5 -277.5z" />
<glyph unicode="&#xbb;" horiz-adv-x="1740" d="M194 128l75 327l353 223l-251 223l67 287l495 -463l-31 -135zM821 128l75 327l353 223l-251 223l67 287l495 -463l-31 -135z" />
<glyph unicode="&#xbc;" horiz-adv-x="2420" d="M337 1166l42 182h66.5t42 4.5t37.5 10t49 21.5q63 26 76.5 40t31.5 69h242l-216 -934h-277l140 607h-234zM503 0l1131 1498h271l-1131 -1498h-271zM1273 197l61 261l571 486h277l-130 -561h167l-43 -186h-167l-45 -197h-262l45 197h-474zM1468 383h326l78 338z" />
<glyph unicode="&#xbd;" horiz-adv-x="2420" d="M317 1166l42 182q84 0 108.5 4.5t87 31t76 40.5t31.5 69h242l-216 -934h-277l140 607h-234zM468 0l1131 1498h271l-1131 -1498h-271zM1347 -1l44 189q92 49 198 113t157 101q96 68 139.5 117.5t43.5 109.5q0 53 -37 81.5t-109 28.5q-57 0 -114 -20.5t-143 -64.5h-23 l54 237q84 27 163 44t166 17q179 0 271 -65t92 -183q0 -75 -26 -136.5t-80 -113.5q-55 -54 -147 -116.5t-206 -132.5h412l-48 -206h-807z" />
<glyph unicode="&#xbe;" horiz-adv-x="2420" d="M178 600l42 216h22q38 -23 120.5 -46t161.5 -23q96 0 147.5 27.5t51.5 83.5q0 40 -31 61t-111 21h-153l38 195h137q89 0 129 29t40 74q0 41 -39 60.5t-128 19.5q-60 0 -134.5 -23.5t-128.5 -49.5h-23l41 213q74 24 155.5 42t179.5 18q202 0 293.5 -58.5t91.5 -164.5 q0 -93 -60.5 -153.5t-160.5 -90.5l-2 -8q73 -20 116 -62t43 -122q0 -147 -128.5 -232t-325.5 -85q-127 0 -228.5 17.5t-155.5 40.5zM598 0l1131 1498h271l-1131 -1498h-271zM1323 197l61 261l571 486h277l-130 -561h167l-43 -186h-167l-45 -197h-262l45 197h-474zM1518 383 h326l78 338z" />
<glyph unicode="&#xbf;" horiz-adv-x="1263" d="M56 328q0 173 131 311.5t411 241.5l49 208h352l-80 -346q-224 -57 -338.5 -144t-114.5 -197q0 -80 54.5 -118.5t155.5 -38.5q79 0 169.5 31t184.5 85h40l-71 -305q-81 -34 -198 -60t-253 -26q-235 0 -363.5 94t-128.5 264zM650 1225l61 264h404l-61 -264h-404z" />
<glyph unicode="&#xc0;" horiz-adv-x="1590" d="M-93 0l893 1489h444l207 -1489h-387l-34 304h-548l-174 -304h-401zM634 571h367l-60 535zM713 2029v20h341l171 -393h-226z" />
<glyph unicode="&#xc1;" horiz-adv-x="1590" d="M-93 0l893 1489h444l207 -1489h-387l-34 304h-548l-174 -304h-401zM634 571h367l-60 535zM734 1656l313 393h381v-20l-438 -373h-256z" />
<glyph unicode="&#xc2;" horiz-adv-x="1590" d="M-93 0l893 1489h444l207 -1489h-387l-34 304h-548l-174 -304h-401zM562 1646l412 393h251l230 -393h-255l-134 219l-235 -219h-269zM634 571h367l-60 535z" />
<glyph unicode="&#xc3;" horiz-adv-x="1590" d="M-93 0l893 1489h444l207 -1489h-387l-34 304h-548l-174 -304h-401zM531 1653q6 36 8.5 51.5t8.5 39.5t8 31t10 24t11.5 22.5t16.5 21t21.5 24t28.5 29.5q65 66 92.5 77t124.5 11q47 0 60.5 -2.5t48.5 -17.5q20 -9 27 -12.5t20 -10.5t21 -13t32 -22q29 -20 48 -28 q10 -5 14.5 -6.5t10 -2t20.5 -0.5q37 0 46 4t27 28t23 35.5t17 54.5h219q-7 -37 -9.5 -52t-8.5 -39t-7.5 -31.5t-9.5 -24.5t-12 -22t-17 -21t-21 -24.5t-28 -28.5q-65 -66 -92 -77t-125 -11q-33 0 -46 1t-24 4.5t-37 15.5q-36 16 -49 23t-53 34q-27 19 -48 28q-17 7 -22.5 8 t-22.5 1q-35 0 -44 -4t-27 -27t-23 -34.5t-19 -56.5h-219zM634 571h367l-60 535z" />
<glyph unicode="&#xc4;" horiz-adv-x="1590" d="M-93 0l893 1489h444l207 -1489h-387l-34 304h-548l-174 -304h-401zM588 1656l63 273h297l-63 -273h-297zM634 571h367l-60 535zM1125 1656l63 273h297l-63 -273h-297z" />
<glyph unicode="&#xc5;" horiz-adv-x="1590" d="M-93 0l857 1429q-26 30 -41.5 75t-15.5 90q0 141 108.5 241t255.5 100q127 0 207.5 -72t80.5 -187q0 -74 -30 -137t-77 -107l199 -1432h-387l-34 304h-548l-174 -304h-401zM634 571h367l-60 535zM892 1606q0 -51 31 -86t88 -35q69 0 116 53t47 121q0 53 -30.5 87 t-86.5 34q-73 0 -119 -55t-46 -119z" />
<glyph unicode="&#xc6;" horiz-adv-x="2240" d="M-125 0l955 1489h1493l-65 -282h-695l-62 -266h645l-66 -283h-645l-87 -376h695l-64 -282h-1074l93 404h-469l-255 -404h-399zM709 688h355l122 527h-144z" />
<glyph unicode="&#xc7;" horiz-adv-x="1482" d="M118 545q0 219 72.5 397t199.5 308q124 126 297.5 197t364.5 71q154 0 286 -31.5t238 -92.5l-88 -361h-44q-95 102 -189 150t-221 48q-223 0 -367.5 -179t-144.5 -456q0 -178 80 -258t234 -80q138 0 259 55.5t229 141.5h40l-87 -356q-31 -12 -67 -28t-83 -33 q-37 -13 -80.5 -27t-99.5 -23q-23 -214 -137 -312.5t-321 -98.5q-38 0 -106.5 7t-101.5 17l46 200h23q25 -12 63 -23.5t87 -11.5q33 0 73 9.5t63 29.5q28 23 48 64t28 103q-285 9 -439.5 157t-154.5 416z" />
<glyph unicode="&#xc8;" horiz-adv-x="1399" d="M59 0l344 1489h1079l-65 -282h-695l-62 -266h645l-66 -283h-645l-87 -376h695l-64 -282h-1079zM640 2029v20h341l171 -393h-226z" />
<glyph unicode="&#xc9;" horiz-adv-x="1399" d="M59 0l344 1489h1079l-65 -282h-695l-62 -266h645l-66 -283h-645l-87 -376h695l-64 -282h-1079zM720 1656l313 393h381v-20l-438 -373h-256z" />
<glyph unicode="&#xca;" horiz-adv-x="1399" d="M59 0l344 1489h1079l-65 -282h-695l-62 -266h645l-66 -283h-645l-87 -376h695l-64 -282h-1079zM515 1656l412 393h251l230 -393h-255l-134 219l-235 -219h-269z" />
<glyph unicode="&#xcb;" horiz-adv-x="1399" d="M59 0l344 1489h1079l-65 -282h-695l-62 -266h645l-66 -283h-645l-87 -376h695l-64 -282h-1079zM533 1656l63 273h297l-63 -273h-297zM1070 1656l63 273h297l-63 -273h-297z" />
<glyph unicode="&#xcc;" horiz-adv-x="1118" d="M-7 0l61 264h243l222 961h-243l61 264h872l-61 -264h-243l-222 -961h243l-61 -264h-872zM503 2029v20h341l171 -393h-226z" />
<glyph unicode="&#xcd;" horiz-adv-x="1118" d="M-7 0l61 264h243l222 961h-243l61 264h872l-61 -264h-243l-222 -961h243l-61 -264h-872zM584 1656l313 393h381v-20l-438 -373h-256z" />
<glyph unicode="&#xce;" horiz-adv-x="1118" d="M-7 0l61 264h243l222 961h-243l61 264h872l-61 -264h-243l-222 -961h243l-61 -264h-872zM346 1656l412 393h251l230 -393h-255l-134 219l-235 -219h-269z" />
<glyph unicode="&#xcf;" horiz-adv-x="1118" d="M-7 0l61 264h243l222 961h-243l61 264h872l-61 -264h-243l-222 -961h243l-61 -264h-872zM387 1656l63 273h297l-63 -273h-297zM924 1656l63 273h297l-63 -273h-297z" />
<glyph unicode="&#xd0;" horiz-adv-x="1700" d="M55 679l53 233h162l133 577h482q213 0 343 -33t210 -89q110 -76 167.5 -189.5t57.5 -269.5q0 -253 -133 -467t-341 -328q-126 -68 -263 -90.5t-328 -22.5h-539l157 679h-161zM507 273h35h124q66 0 107 5q53 5 95.5 16t93.5 37q144 74 221.5 221t77.5 321q0 102 -38 175.5 t-116 118.5q-36 20 -73.5 30.5t-85.5 15.5q-46 4 -105 4h-103h-13l-71 -305h317l-53 -233h-318z" />
<glyph unicode="&#xd1;" horiz-adv-x="1734" d="M59 0l344 1489h430l374 -862l198 862h354l-344 -1489h-327l-437 1031l-238 -1031h-354zM639 1653q8 47 11.5 66t11 46t11.5 35t18 28t24.5 30.5t36.5 37.5q65 66 92 77t125 11q47 0 60.5 -2.5t48.5 -17.5q20 -9 27 -12.5t20 -10.5t21 -13t32 -22q29 -20 48 -28 q10 -5 14.5 -6.5t10 -2t20.5 -0.5q37 0 46 4t27 28t23 35.5t17 54.5h219q-7 -37 -9.5 -52t-8.5 -39t-7.5 -31.5t-9.5 -24.5t-12 -22t-17 -21t-21 -24.5t-28 -28.5q-65 -66 -92 -77t-125 -11q-45 0 -58.5 2.5t-49 18.5t-48.5 23t-53 34q-27 19 -48 28q-17 7 -22.5 8t-22.5 1 q-35 0 -44 -4t-27 -27t-23 -34.5t-19 -56.5h-219z" />
<glyph unicode="&#xd2;" horiz-adv-x="1741" d="M118 560q0 146 8 192t58 177q37 97 54.5 133.5t42 68.5t92.5 106q90 97 127 122.5t170 83.5t181 67.5t205 9.5q170 0 230.5 -9t106.5 -35t141 -114q46 -42 65 -61t44.5 -43.5t32 -47t17 -42.5t11 -60.5t2 -71t1.5 -101.5q0 -137 -7.5 -182t-54.5 -178t-69 -171.5 t-111 -137.5q-39 -44 -54.5 -61.5t-42.5 -42.5t-37 -32t-41.5 -25t-52 -27t-73.5 -32q-36 -17 -52.5 -23.5t-40 -17t-38 -14t-30.5 -9t-35.5 -7t-34.5 -3.5t-45.5 -2t-51.5 -0.5t-68 -0.5q-169 0 -229.5 8.5t-106.5 35t-142 113.5q-45 42 -64 61.5t-44.5 44t-32 47t-17 42.5 t-11 61.5t-2 73t-1.5 104.5zM522 589q0 -128 10 -160.5t68.5 -97.5t86 -76t131.5 -11q72 0 95 6t90 41.5t86.5 52.5t68.5 83q51 67 64.5 92.5t42 114t33.5 122t5 148.5q0 120 -9.5 151.5t-67 99t-85 79t-133.5 11.5q-70 0 -92 -5.5t-85.5 -37t-83 -48t-72.5 -81.5 q-52 -62 -65.5 -88t-45.5 -118.5t-37 -127.5t-5 -150zM716 2029v20h341l171 -393h-226z" />
<glyph unicode="&#xd3;" horiz-adv-x="1741" d="M118 560q0 146 8 192t58 177q37 97 54.5 133.5t42 68.5t92.5 106q90 97 127 122.5t170 83.5t181 67.5t205 9.5q170 0 230.5 -9t106.5 -35t141 -114q46 -42 65 -61t44.5 -43.5t32 -47t17 -42.5t11 -60.5t2 -71t1.5 -101.5q0 -137 -7.5 -182t-54.5 -178t-69 -171.5 t-111 -137.5q-39 -44 -54.5 -61.5t-42.5 -42.5t-37 -32t-41.5 -25t-52 -27t-73.5 -32q-36 -17 -52.5 -23.5t-40 -17t-38 -14t-30.5 -9t-35.5 -7t-34.5 -3.5t-45.5 -2t-51.5 -0.5t-68 -0.5q-169 0 -229.5 8.5t-106.5 35t-142 113.5q-45 42 -64 61.5t-44.5 44t-32 47t-17 42.5 t-11 61.5t-2 73t-1.5 104.5zM522 589q0 -128 10 -160.5t68.5 -97.5t86 -76t131.5 -11q72 0 95 6t90 41.5t86.5 52.5t68.5 83q51 67 64.5 92.5t42 114t33.5 122t5 148.5q0 120 -9.5 151.5t-67 99t-85 79t-133.5 11.5q-70 0 -92 -5.5t-85.5 -37t-83 -48t-72.5 -81.5 q-52 -62 -65.5 -88t-45.5 -118.5t-37 -127.5t-5 -150zM825 1656l313 393h381v-20l-438 -373h-256z" />
<glyph unicode="&#xd4;" horiz-adv-x="1741" d="M118 560q0 146 8 192t58 177q37 97 54.5 133.5t42 68.5t92.5 106q90 97 127 122.5t170 83.5t181 67.5t205 9.5q170 0 230.5 -9t106.5 -35t141 -114q46 -42 65 -61t44.5 -43.5t32 -47t17 -42.5t11 -60.5t2 -71t1.5 -101.5q0 -137 -7.5 -182t-54.5 -178t-69 -171.5 t-111 -137.5q-39 -44 -54.5 -61.5t-42.5 -42.5t-37 -32t-41.5 -25t-52 -27t-73.5 -32q-36 -17 -52.5 -23.5t-40 -17t-38 -14t-30.5 -9t-35.5 -7t-34.5 -3.5t-45.5 -2t-51.5 -0.5t-68 -0.5q-169 0 -229.5 8.5t-106.5 35t-142 113.5q-45 42 -64 61.5t-44.5 44t-32 47t-17 42.5 t-11 61.5t-2 73t-1.5 104.5zM522 589q0 -128 10 -160.5t68.5 -97.5t86 -76t131.5 -11q72 0 95 6t90 41.5t86.5 52.5t68.5 83q51 67 64.5 92.5t42 114t33.5 122t5 148.5q0 120 -9.5 151.5t-67 99t-85 79t-133.5 11.5q-70 0 -92 -5.5t-85.5 -37t-83 -48t-72.5 -81.5 q-52 -62 -65.5 -88t-45.5 -118.5t-37 -127.5t-5 -150zM608 1656l412 393h251l230 -393h-255l-134 219l-235 -219h-269z" />
<glyph unicode="&#xd5;" horiz-adv-x="1741" d="M118 560q0 146 8 192t58 177q37 97 54.5 133.5t42 68.5t92.5 106q90 97 127 122.5t170 83.5t181 67.5t205 9.5q170 0 230.5 -9t106.5 -35t141 -114q46 -42 65 -61t44.5 -43.5t32 -47t17 -42.5t11 -60.5t2 -71t1.5 -101.5q0 -137 -7.5 -182t-54.5 -178t-69 -171.5 t-111 -137.5q-39 -44 -54.5 -61.5t-42.5 -42.5t-37 -32t-41.5 -25t-52 -27t-73.5 -32q-36 -17 -52.5 -23.5t-40 -17t-38 -14t-30.5 -9t-35.5 -7t-34.5 -3.5t-45.5 -2t-51.5 -0.5t-68 -0.5q-169 0 -229.5 8.5t-106.5 35t-142 113.5q-45 42 -64 61.5t-44.5 44t-32 47t-17 42.5 t-11 61.5t-2 73t-1.5 104.5zM522 589q0 -128 10 -160.5t68.5 -97.5t86 -76t131.5 -11q72 0 95 6t90 41.5t86.5 52.5t68.5 83q51 67 64.5 92.5t42 114t33.5 122t5 148.5q0 120 -9.5 151.5t-67 99t-85 79t-133.5 11.5q-70 0 -92 -5.5t-85.5 -37t-83 -48t-72.5 -81.5 q-52 -62 -65.5 -88t-45.5 -118.5t-37 -127.5t-5 -150zM607 1653q6 36 8.5 51.5t8.5 39.5t8 31t10 24t11.5 22.5t16.5 21t21.5 24t28.5 29.5q65 66 92.5 77t124.5 11q47 0 60.5 -2.5t48.5 -17.5q25 -12 36 -17.5t22.5 -12.5t41.5 -28q29 -20 48 -28q13 -7 19 -8t26 -1 q37 0 46 4t27 28t23 35.5t17 54.5h219q-9 -48 -12 -66.5t-11 -46t-12 -35.5t-18 -28t-24 -30.5t-36 -36.5q-65 -66 -92 -77t-125 -11q-45 0 -58.5 2.5t-49 18.5t-48 23t-53.5 34q-27 19 -48 28q-17 7 -22.5 8t-22.5 1q-35 0 -44 -4t-27 -27t-23 -34.5t-19 -56.5h-219z" />
<glyph unicode="&#xd6;" horiz-adv-x="1741" d="M118 560q0 146 8 192t58 177q37 97 54.5 133.5t42 68.5t92.5 106q90 97 127 122.5t170 83.5t181 67.5t205 9.5q170 0 230.5 -9t106.5 -35t141 -114q46 -42 65 -61t44.5 -43.5t32 -47t17 -42.5t11 -60.5t2 -71t1.5 -101.5q0 -137 -7.5 -182t-54.5 -178t-69 -171.5 t-111 -137.5q-39 -44 -54.5 -61.5t-42.5 -42.5t-37 -32t-41.5 -25t-52 -27t-73.5 -32q-36 -17 -52.5 -23.5t-40 -17t-38 -14t-30.5 -9t-35.5 -7t-34.5 -3.5t-45.5 -2t-51.5 -0.5t-68 -0.5q-169 0 -229.5 8.5t-106.5 35t-142 113.5q-45 42 -64 61.5t-44.5 44t-32 47t-17 42.5 t-11 61.5t-2 73t-1.5 104.5zM522 589q0 -128 10 -160.5t68.5 -97.5t86 -76t131.5 -11q72 0 95 6t90 41.5t86.5 52.5t68.5 83q51 67 64.5 92.5t42 114t33.5 122t5 148.5q0 120 -9.5 151.5t-67 99t-85 79t-133.5 11.5q-70 0 -92 -5.5t-85.5 -37t-83 -48t-72.5 -81.5 q-52 -62 -65.5 -88t-45.5 -118.5t-37 -127.5t-5 -150zM644 1656l63 273h297l-63 -273h-297zM1181 1656l63 273h297l-63 -273h-297z" />
<glyph unicode="&#xd7;" horiz-adv-x="1776" d="M307 1101l187 187l439 -441l434 436l187 -187l-436 -434l441 -439l-187 -187l-439 441l-434 -436l-187 187l436 434z" />
<glyph unicode="&#xd8;" horiz-adv-x="1741" d="M-31 -142l286 303q-67 75 -102 176t-35 223q0 194 66 369t189 308q120 129 297 206t386 77q122 0 219.5 -25t171.5 -68l156 165h207l-245 -259q70 -75 106 -174.5t36 -223.5q0 -183 -62 -360t-180 -309q-122 -136 -293.5 -216.5t-403.5 -80.5q-121 0 -219 24.5t-178 72.5 l-195 -208h-207zM514 589q0 -42 4 -73.5t12 -62.5l684 726q-41 38 -93 56t-113 18q-94 0 -180 -43.5t-158 -130.5q-69 -82 -112.5 -208t-43.5 -282zM605 314q39 -39 93 -58.5t120 -19.5q97 0 188.5 49t157.5 136q69 91 108 209.5t39 273.5q0 40 -4 74t-14 65z" />
<glyph unicode="&#xd9;" horiz-adv-x="1663" d="M147 396q0 44 7 89t15 82l214 922h388l-214 -923q-7 -28 -11.5 -61.5t-4.5 -55.5q0 -25 0.5 -35.5t0.5 -24.5t3.5 -21t6 -14.5t10.5 -15t14.5 -13.5t21.5 -19q11 -10 17 -14t13.5 -11t14 -9t12.5 -5.5t17 -4.5t18.5 -2.5t25 -1.5h30h39.5q95 0 121 9t84 61 q24 21 33.5 29.5t23 25.5t17 24t12.5 32.5t13 43.5l14 63l219 943h388l-216 -930q-14 -59 -20 -84.5t-17.5 -67t-15 -55.5t-16 -44t-17 -37.5t-21 -30.5t-24 -30t-31 -29t-38 -33t-47.5 -38q-131 -104 -194 -121.5t-310 -17.5q-163 0 -220.5 6t-99 23.5t-125.5 75.5 q-40 28 -56.5 41.5t-39 30t-28 33.5t-14.5 31.5t-10 46.5t-2 56t-1 81zM753 2029v20h341l171 -393h-226z" />
<glyph unicode="&#xda;" horiz-adv-x="1663" d="M147 396q0 44 7 89t15 82l214 922h388l-214 -923q-7 -28 -11.5 -61.5t-4.5 -55.5q0 -25 0.5 -35.5t0.5 -24.5t3.5 -21t6 -14.5t10.5 -15t14.5 -13.5t21.5 -19q11 -10 17 -14t13.5 -11t14 -9t12.5 -5.5t17 -4.5t18.5 -2.5t25 -1.5h30h39.5q95 0 121 9t84 61 q24 21 33.5 29.5t23 25.5t17 24t12.5 32.5t13 43.5l14 63l219 943h388l-216 -930q-14 -59 -20 -84.5t-17.5 -67t-15 -55.5t-16 -44t-17 -37.5t-21 -30.5t-24 -30t-31 -29t-38 -33t-47.5 -38q-131 -104 -194 -121.5t-310 -17.5q-163 0 -220.5 6t-99 23.5t-125.5 75.5 q-40 28 -56.5 41.5t-39 30t-28 33.5t-14.5 31.5t-10 46.5t-2 56t-1 81zM815 1656l313 393h381v-20l-438 -373h-256z" />
<glyph unicode="&#xdb;" horiz-adv-x="1663" d="M147 396q0 44 7 89t15 82l214 922h388l-214 -923q-7 -28 -11.5 -61.5t-4.5 -55.5q0 -25 0.5 -35.5t0.5 -24.5t3.5 -21t6 -14.5t10.5 -15t14.5 -13.5t21.5 -19q11 -10 17 -14t13.5 -11t14 -9t12.5 -5.5t17 -4.5t18.5 -2.5t25 -1.5h30h39.5q95 0 121 9t84 61 q24 21 33.5 29.5t23 25.5t17 24t12.5 32.5t13 43.5l14 63l219 943h388l-216 -930q-14 -59 -20 -84.5t-17.5 -67t-15 -55.5t-16 -44t-17 -37.5t-21 -30.5t-24 -30t-31 -29t-38 -33t-47.5 -38q-131 -104 -194 -121.5t-310 -17.5q-163 0 -220.5 6t-99 23.5t-125.5 75.5 q-40 28 -56.5 41.5t-39 30t-28 33.5t-14.5 31.5t-10 46.5t-2 56t-1 81zM614 1656l412 393h251l230 -393h-255l-134 219l-235 -219h-269z" />
<glyph unicode="&#xdc;" horiz-adv-x="1663" d="M147 396q0 44 7 89t15 82l214 922h388l-214 -923q-7 -28 -11.5 -61.5t-4.5 -55.5q0 -25 0.5 -35.5t0.5 -24.5t3.5 -21t6 -14.5t10.5 -15t14.5 -13.5t21.5 -19q11 -10 17 -14t13.5 -11t14 -9t12.5 -5.5t17 -4.5t18.5 -2.5t25 -1.5h30h39.5q95 0 121 9t84 61 q24 21 33.5 29.5t23 25.5t17 24t12.5 32.5t13 43.5l14 63l219 943h388l-216 -930q-14 -59 -20 -84.5t-17.5 -67t-15 -55.5t-16 -44t-17 -37.5t-21 -30.5t-24 -30t-31 -29t-38 -33t-47.5 -38q-131 -104 -194 -121.5t-310 -17.5q-163 0 -220.5 6t-99 23.5t-125.5 75.5 q-40 28 -56.5 41.5t-39 30t-28 33.5t-14.5 31.5t-10 46.5t-2 56t-1 81zM649 1656l63 273h297l-63 -273h-297zM1186 1656l63 273h297l-63 -273h-297z" />
<glyph unicode="&#xdd;" horiz-adv-x="1509" d="M224 1489h411l191 -583l445 583h444l-759 -913l-133 -576h-386l129 558zM734 1656l313 393h381v-20l-438 -373h-256z" />
<glyph unicode="&#xde;" horiz-adv-x="1505" d="M60 0l344 1489h386l-52 -225h149q146 0 254.5 -20t187.5 -69q78 -49 119 -127.5t41 -195.5q0 -133 -56.5 -243.5t-163.5 -188.5q-112 -80 -261.5 -122t-355.5 -38l-146 2l-60 -262h-386zM571 540h138q175 0 272.5 71.5t97.5 203.5q0 87 -63 129t-187 42h-155z" />
<glyph unicode="&#xdf;" horiz-adv-x="1460" d="M38 0l244 1056q59 258 227.5 384t435.5 126q231 0 353 -88t122 -241q0 -150 -101 -247.5t-277 -131.5l-2 -9q146 -25 236.5 -111.5t90.5 -224.5q0 -235 -185 -381t-495 -146q-31 0 -85.5 4.5t-84.5 9.5l63 272h40q20 -7 44.5 -12.5t55.5 -5.5q127 0 204 64.5t77 177.5 q0 106 -74.5 153.5t-203.5 47.5l61 267q116 0 190.5 63.5t74.5 162.5q0 64 -38 100t-107 36q-103 0 -165 -64t-88 -176l-252 -1086h-361z" />
<glyph unicode="&#xe0;" horiz-adv-x="1368" d="M19 253q0 35 0.5 50.5t0.5 35.5t4 30.5t6.5 22t12 26t16 25.5t23.5 35q19 29 26.5 40t22.5 27.5t21 21t27.5 17t36.5 19t53 23.5q87 39 121.5 48.5t155 26.5t164 21.5t183.5 12.5q1 6 4 19.5t3 30.5q0 53 -8 65.5t-58 34t-74.5 25t-122.5 3.5q-67 0 -91.5 -4t-105.5 -26 q-107 -30 -161 -50h-33l53 266q63 16 195 36q99 15 132 17.5t131 2.5q198 0 246.5 -8.5t140.5 -60.5q26 -14 37.5 -21t28 -16.5t22 -17t15 -15t11 -19t5.5 -20t4 -28.5t0.5 -33.5t0.5 -43.5q0 -20 -3.5 -52t-9.5 -56l-176 -764h-358l27 119q-34 -22 -82 -53t-89 -49 q-56 -23 -105 -35q-37 -9 -54 -10.5t-82 -1.5q-105 0 -133.5 10t-94.5 68q-50 44 -64.5 64t-19.5 45.5t-5 95.5zM395 311q0 -43 5.5 -53.5t37 -28t47 -20.5t76.5 -3q40 0 54 3t59.5 21.5t59.5 26t54 36.5l55 237q-96 -8 -180 -19q-63 -8 -81 -12t-62 -20 q-46 -17 -57.5 -24.5t-35.5 -37.5t-28 -43.5t-4 -62.5zM493 1656v20h341l171 -393h-226z" />
<glyph unicode="&#xe1;" horiz-adv-x="1368" d="M19 253q0 35 0.5 50.5t0.5 35.5t4 30.5t6.5 22t12 26t16 25.5t23.5 35q19 29 26.5 40t22.5 27.5t21 21t27.5 17t36.5 19t53 23.5q87 39 121.5 48.5t155 26.5t164 21.5t183.5 12.5q1 6 4 19.5t3 30.5q0 53 -8 65.5t-58 34t-74.5 25t-122.5 3.5q-67 0 -91.5 -4t-105.5 -26 q-107 -30 -161 -50h-33l53 266q63 16 195 36q99 15 132 17.5t131 2.5q198 0 246.5 -8.5t140.5 -60.5q26 -14 37.5 -21t28 -16.5t22 -17t15 -15t11 -19t5.5 -20t4 -28.5t0.5 -33.5t0.5 -43.5q0 -20 -3.5 -52t-9.5 -56l-176 -764h-358l27 119q-34 -22 -82 -53t-89 -49 q-56 -23 -105 -35q-37 -9 -54 -10.5t-82 -1.5q-105 0 -133.5 10t-94.5 68q-50 44 -64.5 64t-19.5 45.5t-5 95.5zM395 311q0 -43 5.5 -53.5t37 -28t47 -20.5t76.5 -3q40 0 54 3t59.5 21.5t59.5 26t54 36.5l55 237q-96 -8 -180 -19q-63 -8 -81 -12t-62 -20 q-46 -17 -57.5 -24.5t-35.5 -37.5t-28 -43.5t-4 -62.5zM644 1283l313 393h381v-20l-438 -373h-256z" />
<glyph unicode="&#xe2;" horiz-adv-x="1368" d="M19 253q0 35 0.5 50.5t0.5 35.5t4 30.5t6.5 22t12 26t16 25.5t23.5 35q19 29 26.5 40t22.5 27.5t21 21t27.5 17t36.5 19t53 23.5q87 39 121.5 48.5t155 26.5t164 21.5t183.5 12.5q1 6 4 19.5t3 30.5q0 53 -8 65.5t-58 34t-74.5 25t-122.5 3.5q-67 0 -91.5 -4t-105.5 -26 q-107 -30 -161 -50h-33l53 266q63 16 195 36q99 15 132 17.5t131 2.5q198 0 246.5 -8.5t140.5 -60.5q26 -14 37.5 -21t28 -16.5t22 -17t15 -15t11 -19t5.5 -20t4 -28.5t0.5 -33.5t0.5 -43.5q0 -20 -3.5 -52t-9.5 -56l-176 -764h-358l27 119q-34 -22 -82 -53t-89 -49 q-56 -23 -105 -35q-37 -9 -54 -10.5t-82 -1.5q-105 0 -133.5 10t-94.5 68q-50 44 -64.5 64t-19.5 45.5t-5 95.5zM360 1283l412 393h251l230 -393h-255l-134 219l-235 -219h-269zM395 311q0 -43 5.5 -53.5t37 -28t47 -20.5t76.5 -3q40 0 54 3t59.5 21.5t59.5 26t54 36.5 l55 237q-96 -8 -180 -19q-63 -8 -81 -12t-62 -20q-46 -17 -57.5 -24.5t-35.5 -37.5t-28 -43.5t-4 -62.5z" />
<glyph unicode="&#xe3;" horiz-adv-x="1368" d="M19 253q0 35 0.5 50.5t0.5 35.5t4 30.5t6.5 22t12 26t16 25.5t23.5 35q19 29 26.5 40t22.5 27.5t21 21t27.5 17t36.5 19t53 23.5q87 39 121.5 48.5t155 26.5t164 21.5t183.5 12.5q1 6 4 19.5t3 30.5q0 53 -8 65.5t-58 34t-74.5 25t-122.5 3.5q-67 0 -91.5 -4t-105.5 -26 q-107 -30 -161 -50h-33l53 266q63 16 195 36q99 15 132 17.5t131 2.5q198 0 246.5 -8.5t140.5 -60.5q26 -14 37.5 -21t28 -16.5t22 -17t15 -15t11 -19t5.5 -20t4 -28.5t0.5 -33.5t0.5 -43.5q0 -20 -3.5 -52t-9.5 -56l-176 -764h-358l27 119q-34 -22 -82 -53t-89 -49 q-56 -23 -105 -35q-37 -9 -54 -10.5t-82 -1.5q-105 0 -133.5 10t-94.5 68q-50 44 -64.5 64t-19.5 45.5t-5 95.5zM358 1280q8 47 11.5 66t11 46t11.5 35t18 28t24.5 30.5l37.5 37.5q64 66 91 77t125 11q46 0 60 -2.5t48.5 -18t47.5 -22.5t53 -35q29 -20 47 -29q14 -6 20 -7 t26 -1q37 0 46 4t27 28t23 35t17 55h219q-9 -48 -12 -66.5t-11 -46t-12 -35.5t-18 -28t-24 -30.5t-37 -37.5q-64 -65 -91 -76t-125 -11q-45 0 -58.5 2.5t-49.5 18.5q-26 12 -37 17.5t-22.5 12.5t-41.5 27q-27 19 -49 28q-16 7 -21.5 8t-22.5 1q-35 0 -44 -4t-27 -27 t-23 -34.5t-19 -56.5h-219zM395 311q0 -43 5.5 -53.5t37 -28t47 -20.5t76.5 -3q40 0 54 3t59.5 21.5t59.5 26t54 36.5l55 237q-96 -8 -180 -19q-63 -8 -81 -12t-62 -20q-46 -17 -57.5 -24.5t-35.5 -37.5t-28 -43.5t-4 -62.5z" />
<glyph unicode="&#xe4;" horiz-adv-x="1368" d="M19 253q0 35 0.5 50.5t0.5 35.5t4 30.5t6.5 22t12 26t16 25.5t23.5 35q19 29 26.5 40t22.5 27.5t21 21t27.5 17t36.5 19t53 23.5q87 39 121.5 48.5t155 26.5t164 21.5t183.5 12.5q1 6 4 19.5t3 30.5q0 53 -8 65.5t-58 34t-74.5 25t-122.5 3.5q-67 0 -91.5 -4t-105.5 -26 q-107 -30 -161 -50h-33l53 266q63 16 195 36q99 15 132 17.5t131 2.5q198 0 246.5 -8.5t140.5 -60.5q26 -14 37.5 -21t28 -16.5t22 -17t15 -15t11 -19t5.5 -20t4 -28.5t0.5 -33.5t0.5 -43.5q0 -20 -3.5 -52t-9.5 -56l-176 -764h-358l27 119q-34 -22 -82 -53t-89 -49 q-56 -23 -105 -35q-37 -9 -54 -10.5t-82 -1.5q-105 0 -133.5 10t-94.5 68q-50 44 -64.5 64t-19.5 45.5t-5 95.5zM395 311q0 -43 5.5 -53.5t37 -28t47 -20.5t76.5 -3q40 0 54 3t59.5 21.5t59.5 26t54 36.5l55 237q-96 -8 -180 -19q-63 -8 -81 -12t-62 -20 q-46 -17 -57.5 -24.5t-35.5 -37.5t-28 -43.5t-4 -62.5zM404 1283l63 273h297l-63 -273h-297zM941 1283l63 273h297l-63 -273h-297z" />
<glyph unicode="&#xe5;" horiz-adv-x="1368" d="M19 253q0 133 63 225.5t187 147.5q116 52 276.5 75t347.5 34q1 6 4 19.5t3 30.5q0 71 -66 99.5t-197 28.5q-89 0 -196.5 -30t-161.5 -50h-33l53 266q56 15 160 31.5t217 22.5q-62 33 -99.5 91.5t-37.5 136.5q0 69 29.5 132t81.5 111q49 45 116.5 71.5t136.5 26.5 q61 0 112 -17t91 -51q40 -35 62.5 -82t22.5 -109q0 -113 -68.5 -199.5t-162.5 -121.5q148 -21 228 -86.5t80 -183.5q0 -20 -3.5 -52t-9.5 -56l-176 -764h-358l27 119q-34 -22 -82 -53t-89 -49q-56 -23 -105 -35t-136 -12q-140 0 -228.5 78.5t-88.5 204.5zM395 311 q0 -58 42.5 -81.5t123.5 -23.5q53 0 113.5 24.5t113.5 62.5l55 237q-96 -8 -180 -19t-143 -32q-61 -22 -93 -62t-32 -106zM724 1393q0 -51 31 -86t88 -35q69 0 116 53t47 121q0 53 -30.5 87t-86.5 34q-73 0 -119 -55t-46 -119z" />
<glyph unicode="&#xe6;" horiz-adv-x="2085" d="M19 253q0 137 63 226.5t182 143.5q112 52 267.5 76t351.5 36q1 6 4 19.5t3 30.5q0 71 -62 99.5t-191 28.5q-89 0 -196.5 -30t-161.5 -50h-33l53 266q63 16 195 36t263 20q149 0 243.5 -19t161.5 -66q77 42 172 65t200 23q246 0 371 -101.5t125 -299.5q0 -68 -13.5 -133 t-35.5 -129h-814v-12v-11q0 -128 86.5 -188.5t236.5 -60.5q110 0 214.5 40t182.5 89h40l-67 -289q-102 -44 -214 -68.5t-244 -24.5q-162 0 -282.5 44t-195.5 125q-135 -83 -264.5 -126t-293.5 -43q-155 0 -251 73t-96 210zM395 331q0 -66 44.5 -93t121.5 -27q58 0 127.5 24 t142.5 71q-9 32 -13.5 68t-4.5 71q0 24 1 42t3 41q-222 -17 -322 -60.5t-100 -136.5zM1202 706h465q3 18 4.5 33t1.5 31q0 79 -47.5 121t-132.5 42q-107 0 -179 -59.5t-112 -167.5z" />
<glyph unicode="&#xe7;" horiz-adv-x="1205" d="M74 441q0 151 57.5 280.5t161.5 226.5q102 95 249 150.5t318 55.5q103 0 204.5 -23t188.5 -67l-76 -307h-51q-59 71 -133.5 105.5t-167.5 34.5q-170 0 -273 -120.5t-103 -300.5q0 -125 63.5 -187t197.5 -62q104 0 189.5 42.5t146.5 94.5h51l-76 -307q-36 -16 -91 -36 t-102 -30q-23 -217 -136.5 -315.5t-322.5 -98.5q-38 0 -106.5 7t-101.5 17l46 200h23q25 -12 63 -23.5t87 -11.5q33 0 73 9t63 29q28 23 48 64t28 102q-106 3 -199.5 32t-163.5 85q-73 59 -114 148t-41 206z" />
<glyph unicode="&#xe8;" horiz-adv-x="1360" d="M75 373.5v74.5q0 115 6.5 150t44.5 131t56.5 124t90.5 101q69 70 98 89t132 60t141 48t162 7q139 0 188 -5.5t84.5 -22.5t105.5 -74q27 -21 38.5 -31t29 -23.5t23 -24.5t15 -21.5t11.5 -26.5t6 -28t4 -39t0.5 -45t0.5 -60q0 -51 -1.5 -67.5t-12 -65.5t-15 -65t-20.5 -64 h-834v-11v-12q0 -65 4.5 -88t18 -40.5t59.5 -54.5l35 -28t29.5 -18t28 -12t37.5 -5t49 -3h72q88 0 116 5t108 35q58 22 80 31.5t41 20t62 37.5h40l-67 -289q-79 -35 -106.5 -43.5t-114.5 -26t-118 -20.5t-129 -3h-95.5t-72.5 2.5t-57.5 3.5t-44.5 10t-40 14.5t-37.5 23.5 t-43.5 30.5t-52 42.5t-52 42t-37.5 35t-29 30.5t-17.5 32t-12.5 35t-4.5 45t-3 57zM464 706h485q3 18 4.5 33t1.5 31q0 59 -6 74t-43 47q-37 31 -54.5 36.5t-86.5 5.5q-49 0 -66 -0.5t-40.5 -8t-35 -16.5t-45.5 -35q-41 -33 -56 -49t-25.5 -37.5t-32.5 -80.5zM503 1656v20 h341l171 -393h-226z" />
<glyph unicode="&#xe9;" horiz-adv-x="1360" d="M75 373.5v74.5q0 115 6.5 150t44.5 131t56.5 124t90.5 101q69 70 98 89t132 60t141 48t162 7q139 0 188 -5.5t84.5 -22.5t105.5 -74q27 -21 38.5 -31t29 -23.5t23 -24.5t15 -21.5t11.5 -26.5t6 -28t4 -39t0.5 -45t0.5 -60q0 -51 -1.5 -67.5t-12 -65.5t-15 -65t-20.5 -64 h-834v-11v-12q0 -65 4.5 -88t18 -40.5t59.5 -54.5l35 -28t29.5 -18t28 -12t37.5 -5t49 -3h72q88 0 116 5t108 35q58 22 80 31.5t41 20t62 37.5h40l-67 -289q-79 -35 -106.5 -43.5t-114.5 -26t-118 -20.5t-129 -3h-95.5t-72.5 2.5t-57.5 3.5t-44.5 10t-40 14.5t-37.5 23.5 t-43.5 30.5t-52 42.5t-52 42t-37.5 35t-29 30.5t-17.5 32t-12.5 35t-4.5 45t-3 57zM464 706h485q3 18 4.5 33t1.5 31q0 59 -6 74t-43 47q-37 31 -54.5 36.5t-86.5 5.5q-49 0 -66 -0.5t-40.5 -8t-35 -16.5t-45.5 -35q-41 -33 -56 -49t-25.5 -37.5t-32.5 -80.5zM574 1283 l313 393h381v-20l-438 -373h-256z" />
<glyph unicode="&#xea;" horiz-adv-x="1360" d="M75 373.5v74.5q0 115 6.5 150t44.5 131t56.5 124t90.5 101q69 70 98 89t132 60t141 48t162 7q139 0 188 -5.5t84.5 -22.5t105.5 -74q27 -21 38.5 -31t29 -23.5t23 -24.5t15 -21.5t11.5 -26.5t6 -28t4 -39t0.5 -45t0.5 -60q0 -51 -1.5 -67.5t-12 -65.5t-15 -65t-20.5 -64 h-834v-11v-12q0 -65 4.5 -88t18 -40.5t59.5 -54.5l35 -28t29.5 -18t28 -12t37.5 -5t49 -3h72q88 0 116 5t108 35q58 22 80 31.5t41 20t62 37.5h40l-67 -289q-79 -35 -106.5 -43.5t-114.5 -26t-118 -20.5t-129 -3h-95.5t-72.5 2.5t-57.5 3.5t-44.5 10t-40 14.5t-37.5 23.5 t-43.5 30.5t-52 42.5t-52 42t-37.5 35t-29 30.5t-17.5 32t-12.5 35t-4.5 45t-3 57zM367 1283l412 393h251l230 -393h-255l-134 219l-235 -219h-269zM464 706h485q3 18 4.5 33t1.5 31q0 59 -6 74t-43 47q-37 31 -54.5 36.5t-86.5 5.5q-49 0 -66 -0.5t-40.5 -8t-35 -16.5 t-45.5 -35q-41 -33 -56 -49t-25.5 -37.5t-32.5 -80.5z" />
<glyph unicode="&#xeb;" horiz-adv-x="1360" d="M75 373.5v74.5q0 115 6.5 150t44.5 131t56.5 124t90.5 101q69 70 98 89t132 60t141 48t162 7q139 0 188 -5.5t84.5 -22.5t105.5 -74q27 -21 38.5 -31t29 -23.5t23 -24.5t15 -21.5t11.5 -26.5t6 -28t4 -39t0.5 -45t0.5 -60q0 -51 -1.5 -67.5t-12 -65.5t-15 -65t-20.5 -64 h-834v-11v-12q0 -65 4.5 -88t18 -40.5t59.5 -54.5l35 -28t29.5 -18t28 -12t37.5 -5t49 -3h72q88 0 116 5t108 35q58 22 80 31.5t41 20t62 37.5h40l-67 -289q-79 -35 -106.5 -43.5t-114.5 -26t-118 -20.5t-129 -3h-95.5t-72.5 2.5t-57.5 3.5t-44.5 10t-40 14.5t-37.5 23.5 t-43.5 30.5t-52 42.5t-52 42t-37.5 35t-29 30.5t-17.5 32t-12.5 35t-4.5 45t-3 57zM383 1283l63 273h297l-63 -273h-297zM464 706h485q3 18 4.5 33t1.5 31q0 59 -6 74t-43 47q-37 31 -54.5 36.5t-86.5 5.5q-49 0 -66 -0.5t-40.5 -8t-35 -16.5t-45.5 -35q-41 -33 -56 -49 t-25.5 -37.5t-32.5 -80.5zM920 1283l63 273h297l-63 -273h-297z" />
<glyph unicode="&#xec;" horiz-adv-x="700" d="M40 0l260 1123h362l-260 -1123h-362zM183 1656v20h341l171 -393h-226z" />
<glyph unicode="&#xed;" horiz-adv-x="700" d="M40 0l260 1123h362l-260 -1123h-362zM243 1283l313 393h381v-20l-438 -373h-256z" />
<glyph unicode="&#xee;" horiz-adv-x="700" d="M40 0l260 1123h362l-260 -1123h-362zM157 1283l316 393h255l152 -393h-229l-84 213l-165 -213h-245z" />
<glyph unicode="&#xef;" horiz-adv-x="700" d="M40 0l260 1123h362l-260 -1123h-362zM146 1283l63 273h277l-63 -273h-277zM605 1283l63 273h277l-63 -273h-277z" />
<glyph unicode="&#xf0;" horiz-adv-x="1391" d="M65 411q0 272 186.5 446t463.5 174q81 0 144 -19t115 -48q-10 55 -46 125t-86 136l-336 -123l-65 167l272 99q-57 54 -119 96.5t-122 66.5l5 25h455q20 -15 43.5 -34t47.5 -41l255 93l65 -167l-185 -67q92 -116 134.5 -244t42.5 -278q0 -198 -59.5 -356.5t-161.5 -268.5 q-104 -112 -236.5 -170t-285.5 -58q-241 0 -384 117.5t-143 328.5zM444 425q0 -102 46 -156.5t138 -54.5q136 0 219 135.5t103 354.5q-43 40 -95.5 63t-113.5 23q-137 0 -217 -97.5t-80 -267.5z" />
<glyph unicode="&#xf1;" horiz-adv-x="1459" d="M40 0l259 1123h362l-29 -124q83 55 108.5 69t94 45t93.5 36t108 5q113 0 142.5 -9t92.5 -64q26 -22 36 -31t22.5 -26t15.5 -24t6.5 -31t3.5 -41v-59q0 -30 -4 -65t-13 -73l-168 -731h-364l128 557q14 62 22 106t8 82q0 49 -4 60.5t-29 34.5t-40 26.5t-81 3.5 q-32 0 -44.5 -2.5t-54.5 -16t-58 -20.5t-68 -35l-183 -796h-362zM411 1280q8 47 11.5 66t11 46t11.5 35t18 28t24.5 30.5t36.5 37.5q65 66 92.5 77t124.5 11q47 0 60.5 -2.5t48 -18t47.5 -22.5t53 -35q29 -20 48 -29q13 -6 19 -7t26 -1q37 0 46 4t27 28t23 35t17 55h219 q-9 -48 -12 -66.5t-11 -46t-12 -35.5t-18 -28t-24 -30.5t-36 -37.5q-65 -65 -92 -76t-125 -11q-45 0 -58.5 2.5t-48.5 18.5q-27 12 -38 17.5t-22.5 12.5t-41.5 27q-27 19 -48 28q-17 7 -22.5 8t-22.5 1q-35 0 -44 -4t-27 -27t-23.5 -34.5t-18.5 -56.5h-219z" />
<glyph unicode="&#xf2;" horiz-adv-x="1404" d="M74 326.5v90.5q0 113 6 148.5t44 136.5q37 101 55.5 131t92.5 107q42 44 57 59.5t44 35.5t50.5 29.5t82.5 35.5q76 32 109 42t69 13t132 3q67 0 95.5 -1t66 -1.5t55.5 -7.5t38.5 -11.5t41 -22t37 -30.5t52.5 -44q28 -25 40 -37t30 -28t24 -27.5t16 -23.5t11.5 -29.5 t6 -30.5t4.5 -41t0.5 -47.5t0.5 -63.5q0 -118 -6.5 -155t-46.5 -141t-58.5 -133.5t-90.5 -103.5q-75 -77 -104 -97t-128 -61.5t-137.5 -48.5t-170.5 -7h-83.5t-63 2.5t-50.5 3.5t-39 9.5t-35 13.5t-32.5 22t-37.5 29t-44 40q-41 37 -57 51t-36.5 41.5t-24.5 38.5t-10 48 t-6 62.5zM449 424q0 -31 0.5 -43.5t0.5 -30t3 -25t5 -16t9.5 -16.5t13 -14t19.5 -19q38 -38 55.5 -44t84.5 -6q49 0 64.5 4.5t60.5 31t57.5 39t44.5 59.5q35 52 43.5 71.5t25.5 81.5q14 46 17.5 66.5t5 45t1.5 90.5q0 77 -5.5 97t-39.5 62q-9 11 -13.5 16t-11 12.5t-11.5 10 t-9.5 7t-12.5 5t-14 2.5t-19 2h-22h-30q-57 0 -73.5 -4.5t-60 -32.5t-56 -41t-45.5 -64q-31 -47 -39 -66.5t-25.5 -89.5t-20.5 -93.5t-3 -97.5zM518 1656v20h341l171 -393h-226z" />
<glyph unicode="&#xf3;" horiz-adv-x="1404" d="M74 326.5v90.5q0 113 6 148.5t44 136.5q37 101 55.5 131t92.5 107q42 44 57 59.5t44 35.5t50.5 29.5t82.5 35.5q76 32 109 42t69 13t132 3q67 0 95.5 -1t66 -1.5t55.5 -7.5t38.5 -11.5t41 -22t37 -30.5t52.5 -44q28 -25 40 -37t30 -28t24 -27.5t16 -23.5t11.5 -29.5 t6 -30.5t4.5 -41t0.5 -47.5t0.5 -63.5q0 -118 -6.5 -155t-46.5 -141t-58.5 -133.5t-90.5 -103.5q-75 -77 -104 -97t-128 -61.5t-137.5 -48.5t-170.5 -7h-83.5t-63 2.5t-50.5 3.5t-39 9.5t-35 13.5t-32.5 22t-37.5 29t-44 40q-41 37 -57 51t-36.5 41.5t-24.5 38.5t-10 48 t-6 62.5zM449 424q0 -31 0.5 -43.5t0.5 -30t3 -25t5 -16t9.5 -16.5t13 -14t19.5 -19q38 -38 55.5 -44t84.5 -6q49 0 64.5 4.5t60.5 31t57.5 39t44.5 59.5q35 52 43.5 71.5t25.5 81.5q14 46 17.5 66.5t5 45t1.5 90.5q0 77 -5.5 97t-39.5 62q-9 11 -13.5 16t-11 12.5t-11.5 10 t-9.5 7t-12.5 5t-14 2.5t-19 2h-22h-30q-57 0 -73.5 -4.5t-60 -32.5t-56 -41t-45.5 -64q-31 -47 -39 -66.5t-25.5 -89.5t-20.5 -93.5t-3 -97.5zM609 1283l313 393h381v-20l-438 -373h-256z" />
<glyph unicode="&#xf4;" horiz-adv-x="1404" d="M74 326.5v90.5q0 113 6 148.5t44 136.5q37 101 55.5 131t92.5 107q42 44 57 59.5t44 35.5t50.5 29.5t82.5 35.5q76 32 109 42t69 13t132 3q67 0 95.5 -1t66 -1.5t55.5 -7.5t38.5 -11.5t41 -22t37 -30.5t52.5 -44q28 -25 40 -37t30 -28t24 -27.5t16 -23.5t11.5 -29.5 t6 -30.5t4.5 -41t0.5 -47.5t0.5 -63.5q0 -118 -6.5 -155t-46.5 -141t-58.5 -133.5t-90.5 -103.5q-75 -77 -104 -97t-128 -61.5t-137.5 -48.5t-170.5 -7h-83.5t-63 2.5t-50.5 3.5t-39 9.5t-35 13.5t-32.5 22t-37.5 29t-44 40q-41 37 -57 51t-36.5 41.5t-24.5 38.5t-10 48 t-6 62.5zM370 1283l412 393h251l230 -393h-255l-134 219l-235 -219h-269zM449 424q0 -31 0.5 -43.5t0.5 -30t3 -25t5 -16t9.5 -16.5t13 -14t19.5 -19q38 -38 55.5 -44t84.5 -6q49 0 64.5 4.5t60.5 31t57.5 39t44.5 59.5q35 52 43.5 71.5t25.5 81.5q14 46 17.5 66.5t5 45 t1.5 90.5q0 77 -5.5 97t-39.5 62q-9 11 -13.5 16t-11 12.5t-11.5 10t-9.5 7t-12.5 5t-14 2.5t-19 2h-22h-30q-57 0 -73.5 -4.5t-60 -32.5t-56 -41t-45.5 -64q-31 -47 -39 -66.5t-25.5 -89.5t-20.5 -93.5t-3 -97.5z" />
<glyph unicode="&#xf5;" horiz-adv-x="1404" d="M74 326.5v90.5q0 113 6 148.5t44 136.5q37 101 55.5 131t92.5 107q42 44 57 59.5t44 35.5t50.5 29.5t82.5 35.5q76 32 109 42t69 13t132 3q67 0 95.5 -1t66 -1.5t55.5 -7.5t38.5 -11.5t41 -22t37 -30.5t52.5 -44q28 -25 40 -37t30 -28t24 -27.5t16 -23.5t11.5 -29.5 t6 -30.5t4.5 -41t0.5 -47.5t0.5 -63.5q0 -118 -6.5 -155t-46.5 -141t-58.5 -133.5t-90.5 -103.5q-75 -77 -104 -97t-128 -61.5t-137.5 -48.5t-170.5 -7h-83.5t-63 2.5t-50.5 3.5t-39 9.5t-35 13.5t-32.5 22t-37.5 29t-44 40q-41 37 -57 51t-36.5 41.5t-24.5 38.5t-10 48 t-6 62.5zM364 1280q8 47 11.5 66t11 46t11.5 35t18 28t24.5 30.5l37.5 37.5q64 66 91 77t125 11q46 0 60 -2.5t48.5 -18t47 -22.5t53.5 -35q29 -20 47 -29q14 -6 20 -7t26 -1q37 0 46 4t27 28t23 35t17 55h219q-9 -48 -12 -66.5t-11 -46t-12 -35.5t-18 -28t-24 -30.5 t-37 -37.5q-64 -65 -91 -76t-125 -11q-45 0 -58.5 2.5t-49.5 18.5q-26 12 -37 17.5t-22.5 12.5t-41.5 27q-27 19 -49 28q-16 7 -21.5 8t-22.5 1q-35 0 -44 -4t-27 -27t-23 -34.5t-19 -56.5h-219zM449 424q0 -31 0.5 -43.5t0.5 -30t3 -25t5 -16t9.5 -16.5t13 -14t19.5 -19 q38 -38 55.5 -44t84.5 -6q49 0 64.5 4.5t60.5 31t57.5 39t44.5 59.5q35 52 43.5 71.5t25.5 81.5q14 46 17.5 66.5t5 45t1.5 90.5q0 77 -5.5 97t-39.5 62q-9 11 -13.5 16t-11 12.5t-11.5 10t-9.5 7t-12.5 5t-14 2.5t-19 2h-22h-30q-57 0 -73.5 -4.5t-60 -32.5t-56 -41 t-45.5 -64q-31 -47 -39 -66.5t-25.5 -89.5t-20.5 -93.5t-3 -97.5z" />
<glyph unicode="&#xf6;" horiz-adv-x="1404" d="M74 326.5v90.5q0 113 6 148.5t44 136.5q37 101 55.5 131t92.5 107q42 44 57 59.5t44 35.5t50.5 29.5t82.5 35.5q76 32 109 42t69 13t132 3q67 0 95.5 -1t66 -1.5t55.5 -7.5t38.5 -11.5t41 -22t37 -30.5t52.5 -44q28 -25 40 -37t30 -28t24 -27.5t16 -23.5t11.5 -29.5 t6 -30.5t4.5 -41t0.5 -47.5t0.5 -63.5q0 -118 -6.5 -155t-46.5 -141t-58.5 -133.5t-90.5 -103.5q-75 -77 -104 -97t-128 -61.5t-137.5 -48.5t-170.5 -7h-83.5t-63 2.5t-50.5 3.5t-39 9.5t-35 13.5t-32.5 22t-37.5 29t-44 40q-41 37 -57 51t-36.5 41.5t-24.5 38.5t-10 48 t-6 62.5zM408 1283l63 273h297l-63 -273h-297zM449 424q0 -31 0.5 -43.5t0.5 -30t3 -25t5 -16t9.5 -16.5t13 -14t19.5 -19q38 -38 55.5 -44t84.5 -6q49 0 64.5 4.5t60.5 31t57.5 39t44.5 59.5q35 52 43.5 71.5t25.5 81.5q14 46 17.5 66.5t5 45t1.5 90.5q0 77 -5.5 97 t-39.5 62q-9 11 -13.5 16t-11 12.5t-11.5 10t-9.5 7t-12.5 5t-14 2.5t-19 2h-22h-30q-57 0 -73.5 -4.5t-60 -32.5t-56 -41t-45.5 -64q-31 -47 -39 -66.5t-25.5 -89.5t-20.5 -93.5t-3 -97.5zM945 1283l63 273h297l-63 -273h-297z" />
<glyph unicode="&#xf7;" horiz-adv-x="1776" d="M240 528v268h1340v-268h-1340zM740 0v323h340v-323h-340zM740 1001v323h340v-323h-340z" />
<glyph unicode="&#xf8;" horiz-adv-x="1404" d="M-58 -162l247 263q-57 58 -86 138.5t-29 177.5q0 150 50 285t148 238q95 101 233.5 159.5t310.5 58.5q88 0 165 -16t139 -47l149 158h180l-222 -237q53 -56 80.5 -132.5t27.5 -171.5q0 -158 -53 -296t-149 -237q-100 -103 -232 -158.5t-308 -55.5q-86 0 -162.5 15.5 t-133.5 44.5l-175 -187h-180zM441 424q0 -16 1 -29t2 -22l467 498q-26 26 -61.5 37t-77.5 11q-73 0 -133.5 -37.5t-106.5 -106.5q-42 -63 -66.5 -155t-24.5 -196zM504 246q25 -21 59 -31.5t77 -10.5q67 0 127.5 35t104.5 101q45 67 70.5 155.5t25.5 203.5q0 9 -0.5 19 t-1.5 20z" />
<glyph unicode="&#xf9;" horiz-adv-x="1459" d="M104 250q0 38 4 70.5t13 71.5l169 731h364l-129 -557q-15 -64 -22.5 -110t-7.5 -78q0 -50 4 -61.5t28 -34t39 -26t82 -3.5q33 0 45.5 2.5t56 16.5t59 21t65.5 34l184 796h362l-260 -1123h-362l29 124q-54 -35 -105 -66q-29 -16 -40 -22.5t-21.5 -11t-36.5 -14.5 q-44 -18 -57 -22t-49 -10.5t-48 -7.5t-47 -1q-31 0 -45 0.5t-34 0.5t-29 2t-21.5 3t-21 6.5t-17 8.5t-20 12.5t-20 16t-25.5 21.5q-65 53 -75.5 79.5t-10.5 130.5zM523 1656v20h341l171 -393h-226z" />
<glyph unicode="&#xfa;" horiz-adv-x="1459" d="M104 250q0 38 4 70.5t13 71.5l169 731h364l-129 -557q-15 -64 -22.5 -110t-7.5 -78q0 -50 4 -61.5t28 -34t39 -26t82 -3.5q33 0 45.5 2.5t56 16.5t59 21t65.5 34l184 796h362l-260 -1123h-362l29 124q-54 -35 -105 -66q-29 -16 -40 -22.5t-21.5 -11t-36.5 -14.5 q-44 -18 -57 -22t-49 -10.5t-48 -7.5t-47 -1q-31 0 -45 0.5t-34 0.5t-29 2t-21.5 3t-21 6.5t-17 8.5t-20 12.5t-20 16t-25.5 21.5q-65 53 -75.5 79.5t-10.5 130.5zM704 1283l313 393h381v-20l-438 -373h-256z" />
<glyph unicode="&#xfb;" horiz-adv-x="1459" d="M104 250q0 38 4 70.5t13 71.5l169 731h364l-129 -557q-15 -64 -22.5 -110t-7.5 -78q0 -50 4 -61.5t28 -34t39 -26t82 -3.5q33 0 45.5 2.5t56 16.5t59 21t65.5 34l184 796h362l-260 -1123h-362l29 124q-54 -35 -105 -66q-29 -16 -40 -22.5t-21.5 -11t-36.5 -14.5 q-44 -18 -57 -22t-49 -10.5t-48 -7.5t-47 -1q-31 0 -45 0.5t-34 0.5t-29 2t-21.5 3t-21 6.5t-17 8.5t-20 12.5t-20 16t-25.5 21.5q-65 53 -75.5 79.5t-10.5 130.5zM429 1283l412 393h251l230 -393h-255l-134 219l-235 -219h-269z" />
<glyph unicode="&#xfc;" horiz-adv-x="1459" d="M104 250q0 38 4 70.5t13 71.5l169 731h364l-129 -557q-15 -64 -22.5 -110t-7.5 -78q0 -50 4 -61.5t28 -34t39 -26t82 -3.5q33 0 45.5 2.5t56 16.5t59 21t65.5 34l184 796h362l-260 -1123h-362l29 124q-54 -35 -105 -66q-29 -16 -40 -22.5t-21.5 -11t-36.5 -14.5 q-44 -18 -57 -22t-49 -10.5t-48 -7.5t-47 -1q-31 0 -45 0.5t-34 0.5t-29 2t-21.5 3t-21 6.5t-17 8.5t-20 12.5t-20 16t-25.5 21.5q-65 53 -75.5 79.5t-10.5 130.5zM467 1283l63 273h297l-63 -273h-297zM1004 1283l63 273h297l-63 -273h-297z" />
<glyph unicode="&#xfd;" horiz-adv-x="1333" d="M59 -412l286 434l-185 1101h368l97 -736l428 736h380l-979 -1535h-395zM604 1283l313 393h381v-20l-438 -373h-256z" />
<glyph unicode="&#xfe;" horiz-adv-x="1432" d="M-56 -412l455 1968h362l-127 -550q102 70 188.5 109t191.5 39q170 0 261 -103.5t91 -286.5q0 -155 -50.5 -300.5t-137.5 -250.5q-91 -111 -205.5 -173t-256.5 -62q-90 0 -165.5 20.5t-136.5 57.5l-108 -468h-362zM461 257q32 -14 74.5 -21.5t87.5 -7.5q91 0 161 39 t113 103q43 63 66 147.5t23 183.5q0 91 -40 139.5t-143 48.5q-53 0 -104 -18.5t-108 -48.5z" />
<glyph unicode="&#xff;" horiz-adv-x="1333" d="M59 -412l286 434l-185 1101h368l97 -736l428 736h380l-979 -1535h-395zM384 1283l63 273h297l-63 -273h-297zM921 1283l63 273h297l-63 -273h-297z" />
<glyph unicode="&#x152;" horiz-adv-x="2325" d="M118 576q0 251 96.5 442t288.5 315q128 84 290.5 120t399.5 36h1215l-65 -282h-695l-62 -266h645l-66 -283h-645l-87 -376h695l-64 -282h-1108q-179 0 -335 30t-266 97q-112 68 -174.5 178.5t-62.5 270.5zM522 625q0 -192 119 -269.5t408 -77.5l215 932 q-215 0 -309 -19.5t-192 -80.5q-107 -66 -174 -189t-67 -296z" />
<glyph unicode="&#x153;" horiz-adv-x="2187" d="M74 417q0 150 50 285t148 238q95 101 233.5 159.5t310.5 58.5q132 0 231 -33t164 -95q86 61 198 94.5t239 33.5q246 0 371 -101.5t125 -299.5q0 -68 -13.5 -133t-35.5 -129h-814v-12v-11q0 -128 86.5 -188.5t236.5 -60.5q110 0 214.5 40t182.5 89h40l-67 -289 q-102 -44 -214 -68.5t-244 -24.5q-154 0 -268 37.5t-188 106.5q-95 -72 -209 -110.5t-258 -38.5q-251 0 -385 119t-134 333zM449 424q0 -115 51 -164.5t140 -49.5q65 0 125 35.5t102 98.5q46 70 69.5 153t23.5 202q0 102 -45.5 158t-142.5 56q-76 0 -133.5 -37t-101.5 -105 q-41 -63 -64.5 -156t-23.5 -191zM1316 706h465q3 18 4.5 33t1.5 31q0 79 -47.5 121t-132.5 42q-107 0 -179 -59.5t-112 -167.5z" />
<glyph unicode="&#x178;" horiz-adv-x="1509" d="M224 1489h411l191 -583l445 583h444l-759 -913l-133 -576h-386l129 558zM542 1656l63 273h297l-63 -273h-297zM1079 1656l63 273h297l-63 -273h-297z" />
<glyph unicode="&#x2000;" horiz-adv-x="1024" />
<glyph unicode="&#x2001;" horiz-adv-x="2049" />
<glyph unicode="&#x2002;" horiz-adv-x="1024" />
<glyph unicode="&#x2003;" horiz-adv-x="2049" />
<glyph unicode="&#x2004;" horiz-adv-x="683" />
<glyph unicode="&#x2005;" horiz-adv-x="512" />
<glyph unicode="&#x2006;" horiz-adv-x="341" />
<glyph unicode="&#x2007;" horiz-adv-x="341" />
<glyph unicode="&#x2008;" horiz-adv-x="256" />
<glyph unicode="&#x2009;" horiz-adv-x="409" />
<glyph unicode="&#x200a;" horiz-adv-x="113" />
<glyph unicode="&#x2010;" horiz-adv-x="983" d="M100 518l66 288h763l-66 -288h-763z" />
<glyph unicode="&#x2011;" horiz-adv-x="983" d="M100 518l66 288h763l-66 -288h-763z" />
<glyph unicode="&#x2012;" horiz-adv-x="983" d="M100 518l66 288h763l-66 -288h-763z" />
<glyph unicode="&#x2013;" horiz-adv-x="1178" d="M100 518l82 288h942l-82 -288h-942z" />
<glyph unicode="&#x2014;" horiz-adv-x="2202" d="M100 518l163 288h1885l-163 -288h-1885z" />
<glyph unicode="&#x2018;" horiz-adv-x="680" d="M182 1556h364l21 -589h-230z" />
<glyph unicode="&#x2019;" horiz-adv-x="680" d="M252 967l293 589h372l-427 -589h-238z" />
<glyph unicode="&#x201a;" horiz-adv-x="680" d="M-112 -196l293 589h372l-427 -589h-238z" />
<glyph unicode="&#x201c;" horiz-adv-x="1203" d="M198 1556h364l21 -589h-230zM742 1556h364l21 -589h-230z" />
<glyph unicode="&#x201d;" horiz-adv-x="1203" d="M232 967l293 589h372l-427 -589h-238zM776 967l293 589h372l-427 -589h-238z" />
<glyph unicode="&#x201e;" horiz-adv-x="1203" d="M-128 -196l293 589h372l-427 -589h-238zM416 -196l293 589h372l-427 -589h-238z" />
<glyph unicode="&#x202f;" horiz-adv-x="409" />
<glyph unicode="&#x205f;" horiz-adv-x="512" />
<glyph unicode="&#x20ac;" d="M0 527l48 134h76q4 45 12 89.5t19 86.5h-125l48 134h125q34 78 82 149t105 130q124 126 297 197t355 71q154 0 278 -28t230 -89l-88 -361h-44q-95 102 -181 146.5t-213 44.5q-133 0 -239.5 -71.5t-172.5 -188.5h220l-48 -134h-229q-12 -39 -20 -85t-11 -91h195l-48 -134 h-146q15 -141 94.5 -205t206.5 -64q138 0 252 51.5t222 137.5h40l-87 -356q-102 -50 -224.5 -85t-290.5 -35q-285 0 -449.5 144t-170.5 412h-118z" />
<glyph unicode="&#x2122;" horiz-adv-x="1974" d="M269 1332v157h609v-157h-207v-567h-195v567h-207zM993 765v724h315l146 -354l152 354h306v-724h-194v566h-21l-178 -396h-136l-180 403h-26v-573h-184z" />
<glyph unicode="&#x25fc;" horiz-adv-x="1125" d="M0 0v1125h1125v-1125h-1125z" />
</font>
</defs>
</svg>
