<?xml version="1.0" standalone="no"?>
<!DOCTYPE svg PUBLIC "-//W3C//DTD SVG 1.1//EN" "http://www.w3.org/Graphics/SVG/1.1/DTD/svg11.dtd" >
<svg>
<metadata>
Created by FontForge 20090914 at Mon Apr 17 17:38:09 2017
 By www-data
LiquidCrystal. Copyright 1991 by Peter Jensen Typography. Shareware.
</metadata>
<defs>
<font id="LiquidCrystal" horiz-adv-x="530" >
  <font-face 
    font-family="LiquidCrystal"
    font-weight="400"
    font-stretch="normal"
    units-per-em="1000"
    panose-1="0 0 0 0 0 0 0 0 0 0"
    ascent="800"
    descent="-200"
    cap-height="725"
    bbox="18 -4 1032 1100"
    underline-thickness="20"
    underline-position="-123"
    unicode-range="U+0020-U+00FF"
  />
<missing-glyph horiz-adv-x="1100" 
d="M68 0v1100h964v-1100h-964zM964 68v964h-828v-964h828z" />
    <glyph glyph-name=".notdef" horiz-adv-x="1100" 
d="M68 0v1100h964v-1100h-964zM964 68v964h-828v-964h828z" />
    <glyph glyph-name="space" unicode=" " horiz-adv-x="200" 
 />
    <glyph glyph-name="exclam" unicode="!" horiz-adv-x="500" 
d="M84 745l8 7c6 4 13.333 6.66699 22 8h280l17 -5c11.333 -4 17 -8.66699 17 -14c0 -4 -11.333 -18.667 -34 -44l-34 -37h-198zM384 35l-8.99805 -9c-6.66699 -6 -12.334 -9.33301 -17.001 -10h-296c-8.66699 0 -17.334 2.66699 -26.001 8l-11 9l73 76h216zM388.002 401
c-2.66699 -2.66699 -4.66699 -4.99805 -6 -6.99805c-6 -7.33301 -12.333 -14 -19 -20l-26 -23h-224l-25 22c-16 15.333 -24.667 24.666 -26 27.999l10.5 10c3.66699 3.33301 13.5 11.666 29.5 24.999l19 14h223l21 -20c13.333 -13.333 21 -23 23 -29zM49.002 697.002
c4 12.667 8.66699 22.002 14 28.002l7 7l72 -78l-21 -187l-33 -26l-36 -26c-2 1.33301 -3.66699 2.66602 -5 3.99902c-3.33301 3.33301 -7.33301 8.66602 -12 15.999l-11 19zM448.002 439.004l-18 -15c-12 -10 -19.667 -15 -23 -15c-4 0.666992 -14.667 9.66699 -32 27
l-23 25l25 191l31 37c21.333 24 34 36 38 36s10.333 -6.33301 19 -19l11 -19z" />
    <glyph glyph-name="quotedbl" unicode="&#x22;" horiz-adv-x="492" 
d="M45 697c4 12.667 8.66699 22.002 14 28.002l7 7l72 -78l-21 -187l-33 -26l-36 -26c-2 1.33301 -3.66699 2.66602 -5 3.99902c-3.33301 3.33301 -7.33301 8.66602 -12 15.999l-11 19zM444 439.002l-18 -15c-12 -10 -19.667 -15 -23 -15
c-4 0.666992 -14.667 9.66699 -32 27l-23 25l25 191l31 37c21.333 24 34 36 38 36s10.333 -6.33301 19 -19l11 -19z" />
    <glyph glyph-name="quotesingle" unicode="'" horiz-adv-x="158" 
d="M45 697c4 12.667 8.66699 22.002 14 28.002l7 7l72 -78l-21 -187l-33 -26l-36 -26c-2 1.33301 -3.66699 2.66602 -5 3.99902c-3.33301 3.33301 -7.33301 8.66602 -12 15.999l-11 19z" />
    <glyph glyph-name="parenleft" unicode="(" horiz-adv-x="481" 
d="M118 745l8 7c6 4 13.333 6.66699 22 8h280l17 -5c11.333 -4 17 -8.66699 17 -14c0 -4 -11.333 -18.667 -34 -44l-34 -37h-198zM418 35l-8.99805 -9c-6.66699 -6 -12.334 -9.33301 -17.001 -10h-296c-8.66699 0 -17.334 2.66699 -26.001 8l-11 9l73 76h216zM51.002 366
l12.999 12c9.33301 7.33301 16 11 20 11c4.66699 -3.33301 8.33398 -6.33301 11.001 -9c8 -7.33301 18 -17 30 -29l18 -18l-21 -211l-75 -78c-4 2 -9.33301 8.66699 -16 20c-2 4 -4 9.33301 -6 16l-5 17zM83.001 697c4 12.667 8.66699 22.002 14 28.002l7 7l72 -78l-21 -187
l-33 -26l-36 -26c-2 1.33301 -3.66699 2.66602 -5 3.99902c-3.33301 3.33301 -7.33301 8.66602 -12 15.999l-11 19z" />
    <glyph glyph-name="parenright" unicode=")" horiz-adv-x="492" 
d="M80 745l8 7c6 4 13.333 6.66699 22 8h280l17 -5c11.333 -4 17 -8.66699 17 -14c0 -4 -11.333 -18.667 -34 -44l-34 -37h-198zM380 35l-8.99805 -9c-6.66699 -6 -12.334 -9.33301 -17.001 -10h-296c-8.66699 0 -17.334 2.66699 -26.001 8l-11 9l73 76h216zM444.002 439
l-18 -15c-12 -10 -19.667 -15 -23 -15c-4 0.666992 -14.667 9.66699 -32 27l-23 25l25 191l31 37c21.333 24 34 36 38 36s10.333 -6.33301 19 -19l11 -19zM416.002 86c-0.666992 -4.66699 -1.33398 -7.66602 -2.00098 -8.99902
c-3.33301 -8.66699 -10.666 -17.667 -21.999 -27c-4.66699 1.33301 -17.667 13.666 -39 36.999l-33 36l24 217l25 25c18 16 28.667 24 32 24c4 0 12.667 -5.33301 26 -16l18 -15z" />
    <glyph glyph-name="comma" unicode="," horiz-adv-x="481" 
d="M51 366l12.999 12c9.33301 7.33301 16 11 20 11c4.66699 -3.33301 8.33398 -6.33301 11.001 -9c8 -7.33301 18 -17 30 -29l18 -18l-21 -211l-75 -78c-4 2 -9.33301 8.66699 -16 20c-2 4 -4 9.33301 -6 16l-5 17z" />
    <glyph glyph-name="hyphen" unicode="-" horiz-adv-x="367" 
d="M347 401c-2.66699 -2.66699 -4.66699 -4.99805 -6 -6.99805c-6 -7.33301 -12.333 -14 -19 -20l-26 -23h-224l-25 22c-16 15.333 -24.667 24.666 -26 27.999l10.5 10c3.66699 3.33301 13.5 11.666 29.5 24.999l19 14h223l21 -20c13.333 -13.333 21 -23 23 -29z" />
    <glyph glyph-name="period" unicode="." horiz-adv-x="154" 
d="M27 -4l4 88h100l-8 -88h-96z" />
    <glyph glyph-name="slash" unicode="/" horiz-adv-x="529" 
d="M422 401c-2.66699 -2.66699 -4.66699 -4.99805 -6 -6.99805c-6 -7.33301 -12.333 -14 -19 -20l-26 -23h-224l-25 22c-16 15.333 -24.667 24.666 -26 27.999l10.5 10c3.66699 3.33301 13.5 11.666 29.5 24.999l19 14h223l21 -20c13.333 -13.333 21 -23 23 -29zM51 366.002
l12.999 12c9.33301 7.33301 16 11 20 11c4.66699 -3.33301 8.33398 -6.33301 11.001 -9c8 -7.33301 18 -17 30 -29l18 -18l-21 -211l-75 -78c-4 2 -9.33301 8.66699 -16 20c-2 4 -4 9.33301 -6 16l-5 17zM481.999 439.002l-18 -15c-12 -10 -19.667 -15 -23 -15
c-4 0.666992 -14.667 9.66699 -32 27l-23 25l25 191l31 37c21.333 24 34 36 38 36s10.333 -6.33301 19 -19l11 -19z" />
    <glyph glyph-name="zero" unicode="0" 
d="M118 745l8 7c6 4 13.333 6.66699 22 8h280l17 -5c11.333 -4 17 -8.66699 17 -14c0 -4 -11.333 -18.667 -34 -44l-34 -37h-198zM418 35l-8.99805 -9c-6.66699 -6 -12.334 -9.33301 -17.001 -10h-296c-8.66699 0 -17.334 2.66699 -26.001 8l-11 9l73 76h216zM51.002 366
l12.999 12c9.33301 7.33301 16 11 20 11c4.66699 -3.33301 8.33398 -6.33301 11.001 -9c8 -7.33301 18 -17 30 -29l18 -18l-21 -211l-75 -78c-4 2 -9.33301 8.66699 -16 20c-2 4 -4 9.33301 -6 16l-5 17zM83.001 697c4 12.667 8.66699 22.002 14 28.002l7 7l72 -78l-21 -187
l-33 -26l-36 -26c-2 1.33301 -3.66699 2.66602 -5 3.99902c-3.33301 3.33301 -7.33301 8.66602 -12 15.999l-11 19zM482.001 439.002l-18 -15c-12 -10 -19.667 -15 -23 -15c-4 0.666992 -14.667 9.66699 -32 27l-23 25l25 191l31 37c21.333 24 34 36 38 36
s10.333 -6.33301 19 -19l11 -19zM454.001 86.002c-0.666992 -4.66699 -1.33398 -7.66602 -2.00098 -8.99902c-3.33301 -8.66699 -10.666 -17.667 -21.999 -27c-4.66699 1.33301 -17.667 13.666 -39 36.999l-33 36l24 217l25 25c18 16 28.667 24 32 24
c4 0 12.667 -5.33301 26 -16l18 -15z" />
    <glyph glyph-name="one" unicode="1" horiz-adv-x="193" 
d="M142 439l-18 -15c-12 -10 -19.667 -15 -23 -15c-4 0.666992 -14.667 9.66699 -32 27l-23 25l25 191l31 37c21.333 24 34 36 38 36s10.333 -6.33301 19 -19l11 -19zM114 86c-0.666992 -4.66699 -1.33398 -7.66602 -2.00098 -8.99902
c-3.33301 -8.66699 -10.666 -17.667 -21.999 -27c-4.66699 1.33301 -17.667 13.666 -39 36.999l-33 36l24 217l25 25c18 16 28.667 24 32 24c4 0 12.667 -5.33301 26 -16l18 -15z" />
    <glyph glyph-name="two" unicode="2" 
d="M118 745l8 7c6 4 13.333 6.66699 22 8h280l17 -5c11.333 -4 17 -8.66699 17 -14c0 -4 -11.333 -18.667 -34 -44l-34 -37h-198zM418 35l-8.99805 -9c-6.66699 -6 -12.334 -9.33301 -17.001 -10h-296c-8.66699 0 -17.334 2.66699 -26.001 8l-11 9l73 76h216zM422.002 401
c-2.66699 -2.66699 -4.66699 -4.99805 -6 -6.99805c-6 -7.33301 -12.333 -14 -19 -20l-26 -23h-224l-25 22c-16 15.333 -24.667 24.666 -26 27.999l10.5 10c3.66699 3.33301 13.5 11.666 29.5 24.999l19 14h223l21 -20c13.333 -13.333 21 -23 23 -29zM51.002 366.002
l12.999 12c9.33301 7.33301 16 11 20 11c4.66699 -3.33301 8.33398 -6.33301 11.001 -9c8 -7.33301 18 -17 30 -29l18 -18l-21 -211l-75 -78c-4 2 -9.33301 8.66699 -16 20c-2 4 -4 9.33301 -6 16l-5 17zM482.001 439.002l-18 -15c-12 -10 -19.667 -15 -23 -15
c-4 0.666992 -14.667 9.66699 -32 27l-23 25l25 191l31 37c21.333 24 34 36 38 36s10.333 -6.33301 19 -19l11 -19z" />
    <glyph glyph-name="three" unicode="3" horiz-adv-x="496" 
d="M80 745l8 7c6 4 13.333 6.66699 22 8h280l17 -5c11.333 -4 17 -8.66699 17 -14c0 -4 -11.333 -18.667 -34 -44l-34 -37h-198zM380 35l-8.99805 -9c-6.66699 -6 -12.334 -9.33301 -17.001 -10h-296c-8.66699 0 -17.334 2.66699 -26.001 8l-11 9l73 76h216zM384.002 401
c-2.66699 -2.66699 -4.66699 -4.99805 -6 -6.99805c-6 -7.33301 -12.333 -14 -19 -20l-26 -23h-224l-25 22c-16 15.333 -24.667 24.666 -26 27.999l10.5 10c3.66699 3.33301 13.5 11.666 29.5 24.999l19 14h223l21 -20c13.333 -13.333 21 -23 23 -29zM444.002 439.002
l-18 -15c-12 -10 -19.667 -15 -23 -15c-4 0.666992 -14.667 9.66699 -32 27l-23 25l25 191l31 37c21.333 24 34 36 38 36s10.333 -6.33301 19 -19l11 -19zM416.002 86.002c-0.666992 -4.66699 -1.33398 -7.66602 -2.00098 -8.99902
c-3.33301 -8.66699 -10.666 -17.667 -21.999 -27c-4.66699 1.33301 -17.667 13.666 -39 36.999l-33 36l24 217l25 25c18 16 28.667 24 32 24c4 0 12.667 -5.33301 26 -16l18 -15z" />
    <glyph glyph-name="four" unicode="4" horiz-adv-x="492" 
d="M384 401c-2.66699 -2.66699 -4.66699 -4.99805 -6 -6.99805c-6 -7.33301 -12.333 -14 -19 -20l-26 -23h-224l-25 22c-16 15.333 -24.667 24.666 -26 27.999l10.5 10c3.66699 3.33301 13.5 11.666 29.5 24.999l19 14h223l21 -20c13.333 -13.333 21 -23 23 -29zM45 697.002
c4 12.667 8.66699 22.002 14 28.002l7 7l72 -78l-21 -187l-33 -26l-36 -26c-2 1.33301 -3.66699 2.66602 -5 3.99902c-3.33301 3.33301 -7.33301 8.66602 -12 15.999l-11 19zM444 439.004l-18 -15c-12 -10 -19.667 -15 -23 -15c-4 0.666992 -14.667 9.66699 -32 27l-23 25
l25 191l31 37c21.333 24 34 36 38 36s10.333 -6.33301 19 -19l11 -19zM416 86.0039c-0.666992 -4.66699 -1.33398 -7.66602 -2.00098 -8.99902c-3.33301 -8.66699 -10.666 -17.667 -21.999 -27c-4.66699 1.33301 -17.667 13.666 -39 36.999l-33 36l24 217l25 25
c18 16 28.667 24 32 24c4 0 12.667 -5.33301 26 -16l18 -15z" />
    <glyph glyph-name="five" unicode="5" horiz-adv-x="469" 
d="M80 745l8 7c6 4 13.333 6.66699 22 8h280l17 -5c11.333 -4 17 -8.66699 17 -14c0 -4 -11.333 -18.667 -34 -44l-34 -37h-198zM380 35l-8.99805 -9c-6.66699 -6 -12.334 -9.33301 -17.001 -10h-296c-8.66699 0 -17.334 2.66699 -26.001 8l-11 9l73 76h216zM384.002 401
c-2.66699 -2.66699 -4.66699 -4.99805 -6 -6.99805c-6 -7.33301 -12.333 -14 -19 -20l-26 -23h-224l-25 22c-16 15.333 -24.667 24.666 -26 27.999l10.5 10c3.66699 3.33301 13.5 11.666 29.5 24.999l19 14h223l21 -20c13.333 -13.333 21 -23 23 -29zM45.002 697.002
c4 12.667 8.66699 22.002 14 28.002l7 7l72 -78l-21 -187l-33 -26l-36 -26c-2 1.33301 -3.66699 2.66602 -5 3.99902c-3.33301 3.33301 -7.33301 8.66602 -12 15.999l-11 19zM416.002 86.0039c-0.666992 -4.66699 -1.33398 -7.66602 -2.00098 -8.99902
c-3.33301 -8.66699 -10.666 -17.667 -21.999 -27c-4.66699 1.33301 -17.667 13.666 -39 36.999l-33 36l24 217l25 25c18 16 28.667 24 32 24c4 0 12.667 -5.33301 26 -16l18 -15z" />
    <glyph glyph-name="six" unicode="6" horiz-adv-x="507" 
d="M118 745l8 7c6 4 13.333 6.66699 22 8h280l17 -5c11.333 -4 17 -8.66699 17 -14c0 -4 -11.333 -18.667 -34 -44l-34 -37h-198zM418 35l-8.99805 -9c-6.66699 -6 -12.334 -9.33301 -17.001 -10h-296c-8.66699 0 -17.334 2.66699 -26.001 8l-11 9l73 76h216zM422.002 401
c-2.66699 -2.66699 -4.66699 -4.99805 -6 -6.99805c-6 -7.33301 -12.333 -14 -19 -20l-26 -23h-224l-25 22c-16 15.333 -24.667 24.666 -26 27.999l10.5 10c3.66699 3.33301 13.5 11.666 29.5 24.999l19 14h223l21 -20c13.333 -13.333 21 -23 23 -29zM51.002 366.002
l12.999 12c9.33301 7.33301 16 11 20 11c4.66699 -3.33301 8.33398 -6.33301 11.001 -9c8 -7.33301 18 -17 30 -29l18 -18l-21 -211l-75 -78c-4 2 -9.33301 8.66699 -16 20c-2 4 -4 9.33301 -6 16l-5 17zM83.001 697.002c4 12.667 8.66699 22.002 14 28.002l7 7l72 -78
l-21 -187l-33 -26l-36 -26c-2 1.33301 -3.66699 2.66602 -5 3.99902c-3.33301 3.33301 -7.33301 8.66602 -12 15.999l-11 19zM454.001 86.0039c-0.666992 -4.66699 -1.33398 -7.66602 -2.00098 -8.99902c-3.33301 -8.66699 -10.666 -17.667 -21.999 -27
c-4.66699 1.33301 -17.667 13.666 -39 36.999l-33 36l24 217l25 25c18 16 28.667 24 32 24c4 0 12.667 -5.33301 26 -16l18 -15z" />
    <glyph glyph-name="seven" unicode="7" horiz-adv-x="439" 
d="M24 745l8 7c6 4 13.333 6.66699 22 8h280l17 -5c11.333 -4 17 -8.66699 17 -14c0 -4 -11.333 -18.667 -34 -44l-34 -37h-198zM388 439l-18 -15c-12 -10 -19.667 -15 -23 -15c-4 0.666992 -14.667 9.66699 -32 27l-23 25l25 191l31 37c21.333 24 34 36 38 36
s10.333 -6.33301 19 -19l11 -19zM360 86c-0.666992 -4.66699 -1.33398 -7.66602 -2.00098 -8.99902c-3.33301 -8.66699 -10.666 -17.667 -21.999 -27c-4.66699 1.33301 -17.667 13.666 -39 36.999l-33 36l24 217l25 25c18 16 28.667 24 32 24c4 0 12.667 -5.33301 26 -16
l18 -15z" />
    <glyph glyph-name="eight" unicode="8" horiz-adv-x="534" 
d="M118 745l8 7c6 4 13.333 6.66699 22 8h280l17 -5c11.333 -4 17 -8.66699 17 -14c0 -4 -11.333 -18.667 -34 -44l-34 -37h-198zM418 35l-8.99805 -9c-6.66699 -6 -12.334 -9.33301 -17.001 -10h-296c-8.66699 0 -17.334 2.66699 -26.001 8l-11 9l73 76h216zM422.002 401
c-2.66699 -2.66699 -4.66699 -4.99805 -6 -6.99805c-6 -7.33301 -12.333 -14 -19 -20l-26 -23h-224l-25 22c-16 15.333 -24.667 24.666 -26 27.999l10.5 10c3.66699 3.33301 13.5 11.666 29.5 24.999l19 14h223l21 -20c13.333 -13.333 21 -23 23 -29zM51.002 366.002
l12.999 12c9.33301 7.33301 16 11 20 11c4.66699 -3.33301 8.33398 -6.33301 11.001 -9c8 -7.33301 18 -17 30 -29l18 -18l-21 -211l-75 -78c-4 2 -9.33301 8.66699 -16 20c-2 4 -4 9.33301 -6 16l-5 17zM83.001 697.002c4 12.667 8.66699 22.002 14 28.002l7 7l72 -78
l-21 -187l-33 -26l-36 -26c-2 1.33301 -3.66699 2.66602 -5 3.99902c-3.33301 3.33301 -7.33301 8.66602 -12 15.999l-11 19zM482.001 439.004l-18 -15c-12 -10 -19.667 -15 -23 -15c-4 0.666992 -14.667 9.66699 -32 27l-23 25l25 191l31 37c21.333 24 34 36 38 36
s10.333 -6.33301 19 -19l11 -19zM454.001 86.0039c-0.666992 -4.66699 -1.33398 -7.66602 -2.00098 -8.99902c-3.33301 -8.66699 -10.666 -17.667 -21.999 -27c-4.66699 1.33301 -17.667 13.666 -39 36.999l-33 36l24 217l25 25c18 16 28.667 24 32 24
c4 0 12.667 -5.33301 26 -16l18 -15z" />
    <glyph glyph-name="nine" unicode="9" horiz-adv-x="492" 
d="M80 745l8 7c6 4 13.333 6.66699 22 8h280l17 -5c11.333 -4 17 -8.66699 17 -14c0 -4 -11.333 -18.667 -34 -44l-34 -37h-198zM380 35l-8.99805 -9c-6.66699 -6 -12.334 -9.33301 -17.001 -10h-296c-8.66699 0 -17.334 2.66699 -26.001 8l-11 9l73 76h216zM384.002 401
c-2.66699 -2.66699 -4.66699 -4.99805 -6 -6.99805c-6 -7.33301 -12.333 -14 -19 -20l-26 -23h-224l-25 22c-16 15.333 -24.667 24.666 -26 27.999l10.5 10c3.66699 3.33301 13.5 11.666 29.5 24.999l19 14h223l21 -20c13.333 -13.333 21 -23 23 -29zM45.002 697.002
c4 12.667 8.66699 22.002 14 28.002l7 7l72 -78l-21 -187l-33 -26l-36 -26c-2 1.33301 -3.66699 2.66602 -5 3.99902c-3.33301 3.33301 -7.33301 8.66602 -12 15.999l-11 19zM444.002 439.004l-18 -15c-12 -10 -19.667 -15 -23 -15c-4 0.666992 -14.667 9.66699 -32 27
l-23 25l25 191l31 37c21.333 24 34 36 38 36s10.333 -6.33301 19 -19l11 -19zM416.002 86.0039c-0.666992 -4.66699 -1.33398 -7.66602 -2.00098 -8.99902c-3.33301 -8.66699 -10.666 -17.667 -21.999 -27c-4.66699 1.33301 -17.667 13.666 -39 36.999l-33 36l24 217l25 25
c18 16 28.667 24 32 24c4 0 12.667 -5.33301 26 -16l18 -15z" />
    <glyph glyph-name="colon" unicode=":" horiz-adv-x="180" 
d="M39 484l8 100h108l-12 -100h-104zM23 212l8 100h108l-12 -100h-104z" />
    <glyph glyph-name="semicolon" unicode=";" horiz-adv-x="481" 
d="M118 745l8 7c6 4 13.333 6.66699 22 8h280l17 -5c11.333 -4 17 -8.66699 17 -14c0 -4 -11.333 -18.667 -34 -44l-34 -37h-198zM51 366l12.999 12c9.33301 7.33301 16 11 20 11c4.66699 -3.33301 8.33398 -6.33301 11.001 -9c8 -7.33301 18 -17 30 -29l18 -18l-21 -211
l-75 -78c-4 2 -9.33301 8.66699 -16 20c-2 4 -4 9.33301 -6 16l-5 17z" />
    <glyph glyph-name="less" unicode="&#x3c;" horiz-adv-x="443" 
d="M418 35l-8.99805 -9c-6.66699 -6 -12.334 -9.33301 -17.001 -10h-296c-8.66699 0 -17.334 2.66699 -26.001 8l-11 9l73 76h216zM422.002 401c-2.66699 -2.66699 -4.66699 -4.99805 -6 -6.99805c-6 -7.33301 -12.333 -14 -19 -20l-26 -23h-224l-25 22
c-16 15.333 -24.667 24.666 -26 27.999l10.5 10c3.66699 3.33301 13.5 11.666 29.5 24.999l19 14h223l21 -20c13.333 -13.333 21 -23 23 -29zM51.002 366.002l12.999 12c9.33301 7.33301 16 11 20 11c4.66699 -3.33301 8.33398 -6.33301 11.001 -9c8 -7.33301 18 -17 30 -29
l18 -18l-21 -211l-75 -78c-4 2 -9.33301 8.66699 -16 20c-2 4 -4 9.33301 -6 16l-5 17z" />
    <glyph glyph-name="equal" unicode="=" horiz-adv-x="401" 
d="M380 35l-8.99805 -9c-6.66699 -6 -12.334 -9.33301 -17.001 -10h-296c-8.66699 0 -17.334 2.66699 -26.001 8l-11 9l73 76h216zM384.002 401c-2.66699 -2.66699 -4.66699 -4.99805 -6 -6.99805c-6 -7.33301 -12.333 -14 -19 -20l-26 -23h-224l-25 22
c-16 15.333 -24.667 24.666 -26 27.999l10.5 10c3.66699 3.33301 13.5 11.666 29.5 24.999l19 14h223l21 -20c13.333 -13.333 21 -23 23 -29z" />
    <glyph glyph-name="greater" unicode="&#x3e;" horiz-adv-x="473" 
d="M380 35l-8.99805 -9c-6.66699 -6 -12.334 -9.33301 -17.001 -10h-296c-8.66699 0 -17.334 2.66699 -26.001 8l-11 9l73 76h216zM384.002 401c-2.66699 -2.66699 -4.66699 -4.99805 -6 -6.99805c-6 -7.33301 -12.333 -14 -19 -20l-26 -23h-224l-25 22
c-16 15.333 -24.667 24.666 -26 27.999l10.5 10c3.66699 3.33301 13.5 11.666 29.5 24.999l19 14h223l21 -20c13.333 -13.333 21 -23 23 -29zM416.002 86.002c-0.666992 -4.66699 -1.33398 -7.66602 -2.00098 -8.99902c-3.33301 -8.66699 -10.666 -17.667 -21.999 -27
c-4.66699 1.33301 -17.667 13.666 -39 36.999l-33 36l24 217l25 25c18 16 28.667 24 32 24c4 0 12.667 -5.33301 26 -16l18 -15z" />
    <glyph glyph-name="question" unicode="?" 
d="M118 745l8 7c6 4 13.333 6.66699 22 8h280l17 -5c11.333 -4 17 -8.66699 17 -14c0 -4 -11.333 -18.667 -34 -44l-34 -37h-198zM422 401c-2.66699 -2.66699 -4.66699 -4.99805 -6 -6.99805c-6 -7.33301 -12.333 -14 -19 -20l-26 -23h-224l-25 22
c-16 15.333 -24.667 24.666 -26 27.999l10.5 10c3.66699 3.33301 13.5 11.666 29.5 24.999l19 14h223l21 -20c13.333 -13.333 21 -23 23 -29zM51 366.002l12.999 12c9.33301 7.33301 16 11 20 11c4.66699 -3.33301 8.33398 -6.33301 11.001 -9c8 -7.33301 18 -17 30 -29
l18 -18l-21 -211l-75 -78c-4 2 -9.33301 8.66699 -16 20c-2 4 -4 9.33301 -6 16l-5 17zM481.999 439.002l-18 -15c-12 -10 -19.667 -15 -23 -15c-4 0.666992 -14.667 9.66699 -32 27l-23 25l25 191l31 37c21.333 24 34 36 38 36s10.333 -6.33301 19 -19l11 -19z" />
    <glyph glyph-name="A" unicode="A" 
d="M121 745l8 7c6 4 13.333 6.66699 22 8h280l17 -5c11.333 -4 17 -8.66699 17 -14c0 -4 -11.333 -18.667 -34 -44l-34 -37h-198zM425 401c-2.66699 -2.66699 -4.66699 -4.99805 -6 -6.99805c-6 -7.33301 -12.333 -14 -19 -20l-26 -23h-224l-25 22
c-16 15.333 -24.667 24.666 -26 27.999l10.5 10c3.66699 3.33301 13.5 11.666 29.5 24.999l19 14h223l21 -20c13.333 -13.333 21 -23 23 -29zM54 366.002l12.999 12c9.33301 7.33301 16 11 20 11c4.66699 -3.33301 8.33398 -6.33301 11.001 -9c8 -7.33301 18 -17 30 -29
l18 -18l-21 -211l-75 -78c-4 2 -9.33301 8.66699 -16 20c-2 4 -4 9.33301 -6 16l-5 17zM85.999 697.002c4 12.667 8.66699 22.002 14 28.002l7 7l72 -78l-21 -187l-33 -26l-36 -26c-2 1.33301 -3.66699 2.66602 -5 3.99902c-3.33301 3.33301 -7.33301 8.66602 -12 15.999
l-11 19zM484.999 439.004l-18 -15c-12 -10 -19.667 -15 -23 -15c-4 0.666992 -14.667 9.66699 -32 27l-23 25l25 191l31 37c21.333 24 34 36 38 36s10.333 -6.33301 19 -19l11 -19zM456.999 86.0039c-0.666992 -4.66699 -1.33398 -7.66602 -2.00098 -8.99902
c-3.33301 -8.66699 -10.666 -17.667 -21.999 -27c-4.66699 1.33301 -17.667 13.666 -39 36.999l-33 36l24 217l25 25c18 16 28.667 24 32 24c4 0 12.667 -5.33301 26 -16l18 -15z" />
    <glyph glyph-name="B" unicode="B" horiz-adv-x="506" 
d="M418 35l-8.99805 -9c-6.66699 -6 -12.334 -9.33301 -17.001 -10h-296c-8.66699 0 -17.334 2.66699 -26.001 8l-11 9l73 76h216zM422.002 401c-2.66699 -2.66699 -4.66699 -4.99805 -6 -6.99805c-6 -7.33301 -12.333 -14 -19 -20l-26 -23h-224l-25 22
c-16 15.333 -24.667 24.666 -26 27.999l10.5 10c3.66699 3.33301 13.5 11.666 29.5 24.999l19 14h223l21 -20c13.333 -13.333 21 -23 23 -29zM51.002 366.002l12.999 12c9.33301 7.33301 16 11 20 11c4.66699 -3.33301 8.33398 -6.33301 11.001 -9c8 -7.33301 18 -17 30 -29
l18 -18l-21 -211l-75 -78c-4 2 -9.33301 8.66699 -16 20c-2 4 -4 9.33301 -6 16l-5 17zM83.001 697.002c4 12.667 8.66699 22.002 14 28.002l7 7l72 -78l-21 -187l-33 -26l-36 -26c-2 1.33301 -3.66699 2.66602 -5 3.99902c-3.33301 3.33301 -7.33301 8.66602 -12 15.999
l-11 19zM454.001 86.0039c-0.666992 -4.66699 -1.33398 -7.66602 -2.00098 -8.99902c-3.33301 -8.66699 -10.666 -17.667 -21.999 -27c-4.66699 1.33301 -17.667 13.666 -39 36.999l-33 36l24 217l25 25c18 16 28.667 24 32 24c4 0 12.667 -5.33301 26 -16l18 -15z" />
    <glyph glyph-name="C" unicode="C" horiz-adv-x="435" 
d="M418 35l-8.99805 -9c-6.66699 -6 -12.334 -9.33301 -17.001 -10h-296c-8.66699 0 -17.334 2.66699 -26.001 8l-11 9l73 76h216zM422.002 401c-2.66699 -2.66699 -4.66699 -4.99805 -6 -6.99805c-6 -7.33301 -12.333 -14 -19 -20l-26 -23h-224l-25 22
c-16 15.333 -24.667 24.666 -26 27.999l10.5 10c3.66699 3.33301 13.5 11.666 29.5 24.999l19 14h223l21 -20c13.333 -13.333 21 -23 23 -29zM51.002 366.002l12.999 12c9.33301 7.33301 16 11 20 11c4.66699 -3.33301 8.33398 -6.33301 11.001 -9c8 -7.33301 18 -17 30 -29
l18 -18l-21 -211l-75 -78c-4 2 -9.33301 8.66699 -16 20c-2 4 -4 9.33301 -6 16l-5 17z" />
    <glyph glyph-name="D" unicode="D" 
d="M418 35l-8.99805 -9c-6.66699 -6 -12.334 -9.33301 -17.001 -10h-296c-8.66699 0 -17.334 2.66699 -26.001 8l-11 9l73 76h216zM422.002 401c-2.66699 -2.66699 -4.66699 -4.99805 -6 -6.99805c-6 -7.33301 -12.333 -14 -19 -20l-26 -23h-224l-25 22
c-16 15.333 -24.667 24.666 -26 27.999l10.5 10c3.66699 3.33301 13.5 11.666 29.5 24.999l19 14h223l21 -20c13.333 -13.333 21 -23 23 -29zM51.002 366.002l12.999 12c9.33301 7.33301 16 11 20 11c4.66699 -3.33301 8.33398 -6.33301 11.001 -9c8 -7.33301 18 -17 30 -29
l18 -18l-21 -211l-75 -78c-4 2 -9.33301 8.66699 -16 20c-2 4 -4 9.33301 -6 16l-5 17zM482.001 439.002l-18 -15c-12 -10 -19.667 -15 -23 -15c-4 0.666992 -14.667 9.66699 -32 27l-23 25l25 191l31 37c21.333 24 34 36 38 36s10.333 -6.33301 19 -19l11 -19z
M454.001 86.002c-0.666992 -4.66699 -1.33398 -7.66602 -2.00098 -8.99902c-3.33301 -8.66699 -10.666 -17.667 -21.999 -27c-4.66699 1.33301 -17.667 13.666 -39 36.999l-33 36l24 217l25 25c18 16 28.667 24 32 24c4 0 12.667 -5.33301 26 -16l18 -15z" />
    <glyph glyph-name="E" unicode="E" horiz-adv-x="481" 
d="M118 745l8 7c6 4 13.333 6.66699 22 8h280l17 -5c11.333 -4 17 -8.66699 17 -14c0 -4 -11.333 -18.667 -34 -44l-34 -37h-198zM418 35l-8.99805 -9c-6.66699 -6 -12.334 -9.33301 -17.001 -10h-296c-8.66699 0 -17.334 2.66699 -26.001 8l-11 9l73 76h216zM422.002 401
c-2.66699 -2.66699 -4.66699 -4.99805 -6 -6.99805c-6 -7.33301 -12.333 -14 -19 -20l-26 -23h-224l-25 22c-16 15.333 -24.667 24.666 -26 27.999l10.5 10c3.66699 3.33301 13.5 11.666 29.5 24.999l19 14h223l21 -20c13.333 -13.333 21 -23 23 -29zM51.002 366.002
l12.999 12c9.33301 7.33301 16 11 20 11c4.66699 -3.33301 8.33398 -6.33301 11.001 -9c8 -7.33301 18 -17 30 -29l18 -18l-21 -211l-75 -78c-4 2 -9.33301 8.66699 -16 20c-2 4 -4 9.33301 -6 16l-5 17zM83.001 697.002c4 12.667 8.66699 22.002 14 28.002l7 7l72 -78
l-21 -187l-33 -26l-36 -26c-2 1.33301 -3.66699 2.66602 -5 3.99902c-3.33301 3.33301 -7.33301 8.66602 -12 15.999l-11 19z" />
    <glyph glyph-name="F" unicode="F" horiz-adv-x="481" 
d="M118 745l8 7c6 4 13.333 6.66699 22 8h280l17 -5c11.333 -4 17 -8.66699 17 -14c0 -4 -11.333 -18.667 -34 -44l-34 -37h-198zM422 401c-2.66699 -2.66699 -4.66699 -4.99805 -6 -6.99805c-6 -7.33301 -12.333 -14 -19 -20l-26 -23h-224l-25 22
c-16 15.333 -24.667 24.666 -26 27.999l10.5 10c3.66699 3.33301 13.5 11.666 29.5 24.999l19 14h223l21 -20c13.333 -13.333 21 -23 23 -29zM51 366.002l12.999 12c9.33301 7.33301 16 11 20 11c4.66699 -3.33301 8.33398 -6.33301 11.001 -9c8 -7.33301 18 -17 30 -29
l18 -18l-21 -211l-75 -78c-4 2 -9.33301 8.66699 -16 20c-2 4 -4 9.33301 -6 16l-5 17zM82.999 697.002c4 12.667 8.66699 22.002 14 28.002l7 7l72 -78l-21 -187l-33 -26l-36 -26c-2 1.33301 -3.66699 2.66602 -5 3.99902c-3.33301 3.33301 -7.33301 8.66602 -12 15.999
l-11 19z" />
    <glyph glyph-name="G" unicode="G" horiz-adv-x="507" 
d="M118 745l8 7c6 4 13.333 6.66699 22 8h280l17 -5c11.333 -4 17 -8.66699 17 -14c0 -4 -11.333 -18.667 -34 -44l-34 -37h-198zM418 35l-8.99805 -9c-6.66699 -6 -12.334 -9.33301 -17.001 -10h-296c-8.66699 0 -17.334 2.66699 -26.001 8l-11 9l73 76h216zM51.002 366
l12.999 12c9.33301 7.33301 16 11 20 11c4.66699 -3.33301 8.33398 -6.33301 11.001 -9c8 -7.33301 18 -17 30 -29l18 -18l-21 -211l-75 -78c-4 2 -9.33301 8.66699 -16 20c-2 4 -4 9.33301 -6 16l-5 17zM83.001 697c4 12.667 8.66699 22.002 14 28.002l7 7l72 -78l-21 -187
l-33 -26l-36 -26c-2 1.33301 -3.66699 2.66602 -5 3.99902c-3.33301 3.33301 -7.33301 8.66602 -12 15.999l-11 19zM454.001 86.002c-0.666992 -4.66699 -1.33398 -7.66602 -2.00098 -8.99902c-3.33301 -8.66699 -10.666 -17.667 -21.999 -27
c-4.66699 1.33301 -17.667 13.666 -39 36.999l-33 36l24 217l25 25c18 16 28.667 24 32 24c4 0 12.667 -5.33301 26 -16l18 -15z" />
    <glyph glyph-name="H" unicode="H" horiz-adv-x="507" 
d="M429 401c-2.66699 -2.66699 -4.66699 -4.99805 -6 -6.99805c-6 -7.33301 -12.333 -14 -19 -20l-26 -23h-224l-25 22c-16 15.333 -24.667 24.666 -26 27.999l10.5 10c3.66699 3.33301 13.5 11.666 29.5 24.999l19 14h223l21 -20c13.333 -13.333 21 -23 23 -29zM58 366.002
l12.999 12c9.33301 7.33301 16 11 20 11c4.66699 -3.33301 8.33398 -6.33301 11.001 -9c8 -7.33301 18 -17 30 -29l18 -18l-21 -211l-75 -78c-4 2 -9.33301 8.66699 -16 20c-2 4 -4 9.33301 -6 16l-5 17zM89.999 697.002c4 12.667 8.66699 22.002 14 28.002l7 7l72 -78
l-21 -187l-33 -26l-36 -26c-2 1.33301 -3.66699 2.66602 -5 3.99902c-3.33301 3.33301 -7.33301 8.66602 -12 15.999l-11 19zM460.999 86.0039c-0.666992 -4.66699 -1.33398 -7.66602 -2.00098 -8.99902c-3.33301 -8.66699 -10.666 -17.667 -21.999 -27
c-4.66699 1.33301 -17.667 13.666 -39 36.999l-33 36l24 217l25 25c18 16 28.667 24 32 24c4 0 12.667 -5.33301 26 -16l18 -15z" />
    <glyph glyph-name="I" unicode="I" horiz-adv-x="201" 
d="M149 439l-18 -15c-12 -10 -19.667 -15 -23 -15c-4 0.666992 -14.667 9.66699 -32 27l-23 25l25 191l31 37c21.333 24 34 36 38 36s10.333 -6.33301 19 -19l11 -19zM121 86c-0.666992 -4.66699 -1.33398 -7.66602 -2.00098 -8.99902
c-3.33301 -8.66699 -10.666 -17.667 -21.999 -27c-4.66699 1.33301 -17.667 13.666 -39 36.999l-33 36l24 217l25 25c18 16 28.667 24 32 24c4 0 12.667 -5.33301 26 -16l18 -15z" />
    <glyph glyph-name="J" unicode="J" horiz-adv-x="499" 
d="M384 35l-8.99805 -9c-6.66699 -6 -12.334 -9.33301 -17.001 -10h-296c-8.66699 0 -17.334 2.66699 -26.001 8l-11 9l73 76h216zM448.002 439l-18 -15c-12 -10 -19.667 -15 -23 -15c-4 0.666992 -14.667 9.66699 -32 27l-23 25l25 191l31 37c21.333 24 34 36 38 36
s10.333 -6.33301 19 -19l11 -19zM420.002 86c-0.666992 -4.66699 -1.33398 -7.66602 -2.00098 -8.99902c-3.33301 -8.66699 -10.666 -17.667 -21.999 -27c-4.66699 1.33301 -17.667 13.666 -39 36.999l-33 36l24 217l25 25c18 16 28.667 24 32 24
c4 0 12.667 -5.33301 26 -16l18 -15z" />
    <glyph glyph-name="K" unicode="K" 
d="M422 401c-2.66699 -2.66699 -4.66699 -4.99805 -6 -6.99805c-6 -7.33301 -12.333 -14 -19 -20l-26 -23h-224l-25 22c-16 15.333 -24.667 24.666 -26 27.999l10.5 10c3.66699 3.33301 13.5 11.666 29.5 24.999l19 14h223l21 -20c13.333 -13.333 21 -23 23 -29zM51 366.002
l12.999 12c9.33301 7.33301 16 11 20 11c4.66699 -3.33301 8.33398 -6.33301 11.001 -9c8 -7.33301 18 -17 30 -29l18 -18l-21 -211l-75 -78c-4 2 -9.33301 8.66699 -16 20c-2 4 -4 9.33301 -6 16l-5 17zM82.999 697.002c4 12.667 8.66699 22.002 14 28.002l7 7l72 -78
l-21 -187l-33 -26l-36 -26c-2 1.33301 -3.66699 2.66602 -5 3.99902c-3.33301 3.33301 -7.33301 8.66602 -12 15.999l-11 19zM481.999 439.004l-18 -15c-12 -10 -19.667 -15 -23 -15c-4 0.666992 -14.667 9.66699 -32 27l-23 25l25 191l31 37c21.333 24 34 36 38 36
s10.333 -6.33301 19 -19l11 -19zM453.999 86.0039c-0.666992 -4.66699 -1.33398 -7.66602 -2.00098 -8.99902c-3.33301 -8.66699 -10.666 -17.667 -21.999 -27c-4.66699 1.33301 -17.667 13.666 -39 36.999l-33 36l24 217l25 25c18 16 28.667 24 32 24
c4 0 12.667 -5.33301 26 -16l18 -15z" />
    <glyph glyph-name="L" unicode="L" horiz-adv-x="438" 
d="M418 35l-8.99805 -9c-6.66699 -6 -12.334 -9.33301 -17.001 -10h-296c-8.66699 0 -17.334 2.66699 -26.001 8l-11 9l73 76h216zM51.002 366l12.999 12c9.33301 7.33301 16 11 20 11c4.66699 -3.33301 8.33398 -6.33301 11.001 -9c8 -7.33301 18 -17 30 -29l18 -18
l-21 -211l-75 -78c-4 2 -9.33301 8.66699 -16 20c-2 4 -4 9.33301 -6 16l-5 17zM83.001 697c4 12.667 8.66699 22.002 14 28.002l7 7l72 -78l-21 -187l-33 -26l-36 -26c-2 1.33301 -3.66699 2.66602 -5 3.99902c-3.33301 3.33301 -7.33301 8.66602 -12 15.999l-11 19z" />
    <glyph glyph-name="M" unicode="M" horiz-adv-x="526" 
d="M118 745l8 7c6 4 13.333 6.66699 22 8h280l17 -5c11.333 -4 17 -8.66699 17 -14c0 -4 -11.333 -18.667 -34 -44l-34 -37h-198zM51 366l12.999 12c9.33301 7.33301 16 11 20 11c4.66699 -3.33301 8.33398 -6.33301 11.001 -9c8 -7.33301 18 -17 30 -29l18 -18l-21 -211
l-75 -78c-4 2 -9.33301 8.66699 -16 20c-2 4 -4 9.33301 -6 16l-5 17zM82.999 697c4 12.667 8.66699 22.002 14 28.002l7 7l72 -78l-21 -187l-33 -26l-36 -26c-2 1.33301 -3.66699 2.66602 -5 3.99902c-3.33301 3.33301 -7.33301 8.66602 -12 15.999l-11 19z
M481.999 439.002l-18 -15c-12 -10 -19.667 -15 -23 -15c-4 0.666992 -14.667 9.66699 -32 27l-23 25l25 191l31 37c21.333 24 34 36 38 36s10.333 -6.33301 19 -19l11 -19z" />
    <glyph glyph-name="N" unicode="N" horiz-adv-x="503" 
d="M422 401c-2.66699 -2.66699 -4.66699 -4.99805 -6 -6.99805c-6 -7.33301 -12.333 -14 -19 -20l-26 -23h-224l-25 22c-16 15.333 -24.667 24.666 -26 27.999l10.5 10c3.66699 3.33301 13.5 11.666 29.5 24.999l19 14h223l21 -20c13.333 -13.333 21 -23 23 -29zM51 366.002
l12.999 12c9.33301 7.33301 16 11 20 11c4.66699 -3.33301 8.33398 -6.33301 11.001 -9c8 -7.33301 18 -17 30 -29l18 -18l-21 -211l-75 -78c-4 2 -9.33301 8.66699 -16 20c-2 4 -4 9.33301 -6 16l-5 17zM453.999 86.002
c-0.666992 -4.66699 -1.33398 -7.66602 -2.00098 -8.99902c-3.33301 -8.66699 -10.666 -17.667 -21.999 -27c-4.66699 1.33301 -17.667 13.666 -39 36.999l-33 36l24 217l25 25c18 16 28.667 24 32 24c4 0 12.667 -5.33301 26 -16l18 -15z" />
    <glyph glyph-name="O" unicode="O" horiz-adv-x="507" 
d="M418 35l-8.99805 -9c-6.66699 -6 -12.334 -9.33301 -17.001 -10h-296c-8.66699 0 -17.334 2.66699 -26.001 8l-11 9l73 76h216zM422.002 401c-2.66699 -2.66699 -4.66699 -4.99805 -6 -6.99805c-6 -7.33301 -12.333 -14 -19 -20l-26 -23h-224l-25 22
c-16 15.333 -24.667 24.666 -26 27.999l10.5 10c3.66699 3.33301 13.5 11.666 29.5 24.999l19 14h223l21 -20c13.333 -13.333 21 -23 23 -29zM51.002 366.002l12.999 12c9.33301 7.33301 16 11 20 11c4.66699 -3.33301 8.33398 -6.33301 11.001 -9c8 -7.33301 18 -17 30 -29
l18 -18l-21 -211l-75 -78c-4 2 -9.33301 8.66699 -16 20c-2 4 -4 9.33301 -6 16l-5 17zM454.001 86.002c-0.666992 -4.66699 -1.33398 -7.66602 -2.00098 -8.99902c-3.33301 -8.66699 -10.666 -17.667 -21.999 -27c-4.66699 1.33301 -17.667 13.666 -39 36.999l-33 36
l24 217l25 25c18 16 28.667 24 32 24c4 0 12.667 -5.33301 26 -16l18 -15z" />
    <glyph glyph-name="P" unicode="P" horiz-adv-x="535" 
d="M125 745l8 7c6 4 13.333 6.66699 22 8h280l17 -5c11.333 -4 17 -8.66699 17 -14c0 -4 -11.333 -18.667 -34 -44l-34 -37h-198zM429 401c-2.66699 -2.66699 -4.66699 -4.99805 -6 -6.99805c-6 -7.33301 -12.333 -14 -19 -20l-26 -23h-224l-25 22
c-16 15.333 -24.667 24.666 -26 27.999l10.5 10c3.66699 3.33301 13.5 11.666 29.5 24.999l19 14h223l21 -20c13.333 -13.333 21 -23 23 -29zM58 366.002l12.999 12c9.33301 7.33301 16 11 20 11c4.66699 -3.33301 8.33398 -6.33301 11.001 -9c8 -7.33301 18 -17 30 -29
l18 -18l-21 -211l-75 -78c-4 2 -9.33301 8.66699 -16 20c-2 4 -4 9.33301 -6 16l-5 17zM89.999 697.002c4 12.667 8.66699 22.002 14 28.002l7 7l72 -78l-21 -187l-33 -26l-36 -26c-2 1.33301 -3.66699 2.66602 -5 3.99902c-3.33301 3.33301 -7.33301 8.66602 -12 15.999
l-11 19zM488.999 439.004l-18 -15c-12 -10 -19.667 -15 -23 -15c-4 0.666992 -14.667 9.66699 -32 27l-23 25l25 191l31 37c21.333 24 34 36 38 36s10.333 -6.33301 19 -19l11 -19z" />
    <glyph glyph-name="Q" unicode="Q" horiz-adv-x="503" 
d="M87 745l8 7c6 4 13.333 6.66699 22 8h280l17 -5c11.333 -4 17 -8.66699 17 -14c0 -4 -11.333 -18.667 -34 -44l-34 -37h-198zM391 401c-2.66699 -2.66699 -4.66699 -4.99805 -6 -6.99805c-6 -7.33301 -12.333 -14 -19 -20l-26 -23h-224l-25 22
c-16 15.333 -24.667 24.666 -26 27.999l10.5 10c3.66699 3.33301 13.5 11.666 29.5 24.999l19 14h223l21 -20c13.333 -13.333 21 -23 23 -29zM52 697.002c4 12.667 8.66699 22.002 14 28.002l7 7l72 -78l-21 -187l-33 -26l-36 -26c-2 1.33301 -3.66699 2.66602 -5 3.99902
c-3.33301 3.33301 -7.33301 8.66602 -12 15.999l-11 19zM451 439.004l-18 -15c-12 -10 -19.667 -15 -23 -15c-4 0.666992 -14.667 9.66699 -32 27l-23 25l25 191l31 37c21.333 24 34 36 38 36s10.333 -6.33301 19 -19l11 -19zM423 86.0039
c-0.666992 -4.66699 -1.33398 -7.66602 -2.00098 -8.99902c-3.33301 -8.66699 -10.666 -17.667 -21.999 -27c-4.66699 1.33301 -17.667 13.666 -39 36.999l-33 36l24 217l25 25c18 16 28.667 24 32 24c4 0 12.667 -5.33301 26 -16l18 -15z" />
    <glyph glyph-name="R" unicode="R" horiz-adv-x="439" 
d="M422 401c-2.66699 -2.66699 -4.66699 -4.99805 -6 -6.99805c-6 -7.33301 -12.333 -14 -19 -20l-26 -23h-224l-25 22c-16 15.333 -24.667 24.666 -26 27.999l10.5 10c3.66699 3.33301 13.5 11.666 29.5 24.999l19 14h223l21 -20c13.333 -13.333 21 -23 23 -29zM51 366.002
l12.999 12c9.33301 7.33301 16 11 20 11c4.66699 -3.33301 8.33398 -6.33301 11.001 -9c8 -7.33301 18 -17 30 -29l18 -18l-21 -211l-75 -78c-4 2 -9.33301 8.66699 -16 20c-2 4 -4 9.33301 -6 16l-5 17z" />
    <glyph glyph-name="S" unicode="S" horiz-adv-x="469" 
d="M80 745l8 7c6 4 13.333 6.66699 22 8h280l17 -5c11.333 -4 17 -8.66699 17 -14c0 -4 -11.333 -18.667 -34 -44l-34 -37h-198zM380 35l-8.99805 -9c-6.66699 -6 -12.334 -9.33301 -17.001 -10h-296c-8.66699 0 -17.334 2.66699 -26.001 8l-11 9l73 76h216zM384.002 401
c-2.66699 -2.66699 -4.66699 -4.99805 -6 -6.99805c-6 -7.33301 -12.333 -14 -19 -20l-26 -23h-224l-25 22c-16 15.333 -24.667 24.666 -26 27.999l10.5 10c3.66699 3.33301 13.5 11.666 29.5 24.999l19 14h223l21 -20c13.333 -13.333 21 -23 23 -29zM45.002 697.002
c4 12.667 8.66699 22.002 14 28.002l7 7l72 -78l-21 -187l-33 -26l-36 -26c-2 1.33301 -3.66699 2.66602 -5 3.99902c-3.33301 3.33301 -7.33301 8.66602 -12 15.999l-11 19zM416.002 86.0039c-0.666992 -4.66699 -1.33398 -7.66602 -2.00098 -8.99902
c-3.33301 -8.66699 -10.666 -17.667 -21.999 -27c-4.66699 1.33301 -17.667 13.666 -39 36.999l-33 36l24 217l25 25c18 16 28.667 24 32 24c4 0 12.667 -5.33301 26 -16l18 -15z" />
    <glyph glyph-name="T" unicode="T" horiz-adv-x="443" 
d="M418 35l-8.99805 -9c-6.66699 -6 -12.334 -9.33301 -17.001 -10h-296c-8.66699 0 -17.334 2.66699 -26.001 8l-11 9l73 76h216zM422.002 401c-2.66699 -2.66699 -4.66699 -4.99805 -6 -6.99805c-6 -7.33301 -12.333 -14 -19 -20l-26 -23h-224l-25 22
c-16 15.333 -24.667 24.666 -26 27.999l10.5 10c3.66699 3.33301 13.5 11.666 29.5 24.999l19 14h223l21 -20c13.333 -13.333 21 -23 23 -29zM51.002 366.002l12.999 12c9.33301 7.33301 16 11 20 11c4.66699 -3.33301 8.33398 -6.33301 11.001 -9c8 -7.33301 18 -17 30 -29
l18 -18l-21 -211l-75 -78c-4 2 -9.33301 8.66699 -16 20c-2 4 -4 9.33301 -6 16l-5 17zM83.001 697.002c4 12.667 8.66699 22.002 14 28.002l7 7l72 -78l-21 -187l-33 -26l-36 -26c-2 1.33301 -3.66699 2.66602 -5 3.99902c-3.33301 3.33301 -7.33301 8.66602 -12 15.999
l-11 19z" />
    <glyph glyph-name="U" unicode="U" 
d="M418 35l-8.99805 -9c-6.66699 -6 -12.334 -9.33301 -17.001 -10h-296c-8.66699 0 -17.334 2.66699 -26.001 8l-11 9l73 76h216zM51.002 366l12.999 12c9.33301 7.33301 16 11 20 11c4.66699 -3.33301 8.33398 -6.33301 11.001 -9c8 -7.33301 18 -17 30 -29l18 -18
l-21 -211l-75 -78c-4 2 -9.33301 8.66699 -16 20c-2 4 -4 9.33301 -6 16l-5 17zM83.001 697c4 12.667 8.66699 22.002 14 28.002l7 7l72 -78l-21 -187l-33 -26l-36 -26c-2 1.33301 -3.66699 2.66602 -5 3.99902c-3.33301 3.33301 -7.33301 8.66602 -12 15.999l-11 19z
M482.001 439.002l-18 -15c-12 -10 -19.667 -15 -23 -15c-4 0.666992 -14.667 9.66699 -32 27l-23 25l25 191l31 37c21.333 24 34 36 38 36s10.333 -6.33301 19 -19l11 -19zM454.001 86.002c-0.666992 -4.66699 -1.33398 -7.66602 -2.00098 -8.99902
c-3.33301 -8.66699 -10.666 -17.667 -21.999 -27c-4.66699 1.33301 -17.667 13.666 -39 36.999l-33 36l24 217l25 25c18 16 28.667 24 32 24c4 0 12.667 -5.33301 26 -16l18 -15z" />
    <glyph glyph-name="V" unicode="V" horiz-adv-x="503" 
d="M418 35l-8.99805 -9c-6.66699 -6 -12.334 -9.33301 -17.001 -10h-296c-8.66699 0 -17.334 2.66699 -26.001 8l-11 9l73 76h216zM51.002 366l12.999 12c9.33301 7.33301 16 11 20 11c4.66699 -3.33301 8.33398 -6.33301 11.001 -9c8 -7.33301 18 -17 30 -29l18 -18
l-21 -211l-75 -78c-4 2 -9.33301 8.66699 -16 20c-2 4 -4 9.33301 -6 16l-5 17zM454.001 86c-0.666992 -4.66699 -1.33398 -7.66602 -2.00098 -8.99902c-3.33301 -8.66699 -10.666 -17.667 -21.999 -27c-4.66699 1.33301 -17.667 13.666 -39 36.999l-33 36l24 217l25 25
c18 16 28.667 24 32 24c4 0 12.667 -5.33301 26 -16l18 -15z" />
    <glyph glyph-name="W" unicode="W" horiz-adv-x="507" 
d="M418 35l-8.99805 -9c-6.66699 -6 -12.334 -9.33301 -17.001 -10h-296c-8.66699 0 -17.334 2.66699 -26.001 8l-11 9l73 76h216zM51.002 366l12.999 12c9.33301 7.33301 16 11 20 11c4.66699 -3.33301 8.33398 -6.33301 11.001 -9c8 -7.33301 18 -17 30 -29l18 -18
l-21 -211l-75 -78c-4 2 -9.33301 8.66699 -16 20c-2 4 -4 9.33301 -6 16l-5 17zM83.001 697c4 12.667 8.66699 22.002 14 28.002l7 7l72 -78l-21 -187l-33 -26l-36 -26c-2 1.33301 -3.66699 2.66602 -5 3.99902c-3.33301 3.33301 -7.33301 8.66602 -12 15.999l-11 19z
M454.001 86.002c-0.666992 -4.66699 -1.33398 -7.66602 -2.00098 -8.99902c-3.33301 -8.66699 -10.666 -17.667 -21.999 -27c-4.66699 1.33301 -17.667 13.666 -39 36.999l-33 36l24 217l25 25c18 16 28.667 24 32 24c4 0 12.667 -5.33301 26 -16l18 -15z" />
    <glyph glyph-name="X" unicode="X" horiz-adv-x="534" 
d="M422 401c-2.66699 -2.66699 -4.66699 -4.99805 -6 -6.99805c-6 -7.33301 -12.333 -14 -19 -20l-26 -23h-224l-25 22c-16 15.333 -24.667 24.666 -26 27.999l10.5 10c3.66699 3.33301 13.5 11.666 29.5 24.999l19 14h223l21 -20c13.333 -13.333 21 -23 23 -29zM51 366.002
l12.999 12c9.33301 7.33301 16 11 20 11c4.66699 -3.33301 8.33398 -6.33301 11.001 -9c8 -7.33301 18 -17 30 -29l18 -18l-21 -211l-75 -78c-4 2 -9.33301 8.66699 -16 20c-2 4 -4 9.33301 -6 16l-5 17zM82.999 697.002c4 12.667 8.66699 22.002 14 28.002l7 7l72 -78
l-21 -187l-33 -26l-36 -26c-2 1.33301 -3.66699 2.66602 -5 3.99902c-3.33301 3.33301 -7.33301 8.66602 -12 15.999l-11 19zM481.999 439.004l-18 -15c-12 -10 -19.667 -15 -23 -15c-4 0.666992 -14.667 9.66699 -32 27l-23 25l25 191l31 37c21.333 24 34 36 38 36
s10.333 -6.33301 19 -19l11 -19zM453.999 86.0039c-0.666992 -4.66699 -1.33398 -7.66602 -2.00098 -8.99902c-3.33301 -8.66699 -10.666 -17.667 -21.999 -27c-4.66699 1.33301 -17.667 13.666 -39 36.999l-33 36l24 217l25 25c18 16 28.667 24 32 24
c4 0 12.667 -5.33301 26 -16l18 -15z" />
    <glyph glyph-name="Y" unicode="Y" horiz-adv-x="492" 
d="M380 35l-8.99805 -9c-6.66699 -6 -12.334 -9.33301 -17.001 -10h-296c-8.66699 0 -17.334 2.66699 -26.001 8l-11 9l73 76h216zM384.002 401c-2.66699 -2.66699 -4.66699 -4.99805 -6 -6.99805c-6 -7.33301 -12.333 -14 -19 -20l-26 -23h-224l-25 22
c-16 15.333 -24.667 24.666 -26 27.999l10.5 10c3.66699 3.33301 13.5 11.666 29.5 24.999l19 14h223l21 -20c13.333 -13.333 21 -23 23 -29zM45.002 697.002c4 12.667 8.66699 22.002 14 28.002l7 7l72 -78l-21 -187l-33 -26l-36 -26
c-2 1.33301 -3.66699 2.66602 -5 3.99902c-3.33301 3.33301 -7.33301 8.66602 -12 15.999l-11 19zM444.002 439.004l-18 -15c-12 -10 -19.667 -15 -23 -15c-4 0.666992 -14.667 9.66699 -32 27l-23 25l25 191l31 37c21.333 24 34 36 38 36s10.333 -6.33301 19 -19l11 -19z
M416.002 86.0039c-0.666992 -4.66699 -1.33398 -7.66602 -2.00098 -8.99902c-3.33301 -8.66699 -10.666 -17.667 -21.999 -27c-4.66699 1.33301 -17.667 13.666 -39 36.999l-33 36l24 217l25 25c18 16 28.667 24 32 24c4 0 12.667 -5.33301 26 -16l18 -15z" />
    <glyph glyph-name="Z" unicode="Z" horiz-adv-x="537" 
d="M118 745l8 7c6 4 13.333 6.66699 22 8h280l17 -5c11.333 -4 17 -8.66699 17 -14c0 -4 -11.333 -18.667 -34 -44l-34 -37h-198zM418 35l-8.99805 -9c-6.66699 -6 -12.334 -9.33301 -17.001 -10h-296c-8.66699 0 -17.334 2.66699 -26.001 8l-11 9l73 76h216zM422.002 401
c-2.66699 -2.66699 -4.66699 -4.99805 -6 -6.99805c-6 -7.33301 -12.333 -14 -19 -20l-26 -23h-224l-25 22c-16 15.333 -24.667 24.666 -26 27.999l10.5 10c3.66699 3.33301 13.5 11.666 29.5 24.999l19 14h223l21 -20c13.333 -13.333 21 -23 23 -29zM51.002 366.002
l12.999 12c9.33301 7.33301 16 11 20 11c4.66699 -3.33301 8.33398 -6.33301 11.001 -9c8 -7.33301 18 -17 30 -29l18 -18l-21 -211l-75 -78c-4 2 -9.33301 8.66699 -16 20c-2 4 -4 9.33301 -6 16l-5 17zM482.001 439.002l-18 -15c-12 -10 -19.667 -15 -23 -15
c-4 0.666992 -14.667 9.66699 -32 27l-23 25l25 191l31 37c21.333 24 34 36 38 36s10.333 -6.33301 19 -19l11 -19z" />
    <glyph glyph-name="bracketleft" unicode="[" horiz-adv-x="484" 
d="M118 745l8 7c6 4 13.333 6.66699 22 8h280l17 -5c11.333 -4 17 -8.66699 17 -14c0 -4 -11.333 -18.667 -34 -44l-34 -37h-198zM418 35l-8.99805 -9c-6.66699 -6 -12.334 -9.33301 -17.001 -10h-296c-8.66699 0 -17.334 2.66699 -26.001 8l-11 9l73 76h216zM51.002 366
l12.999 12c9.33301 7.33301 16 11 20 11c4.66699 -3.33301 8.33398 -6.33301 11.001 -9c8 -7.33301 18 -17 30 -29l18 -18l-21 -211l-75 -78c-4 2 -9.33301 8.66699 -16 20c-2 4 -4 9.33301 -6 16l-5 17zM83.001 697c4 12.667 8.66699 22.002 14 28.002l7 7l72 -78l-21 -187
l-33 -26l-36 -26c-2 1.33301 -3.66699 2.66602 -5 3.99902c-3.33301 3.33301 -7.33301 8.66602 -12 15.999l-11 19z" />
    <glyph glyph-name="backslash" unicode="\" horiz-adv-x="466" 
d="M384 401c-2.66699 -2.66699 -4.66699 -4.99805 -6 -6.99805c-6 -7.33301 -12.333 -14 -19 -20l-26 -23h-224l-25 22c-16 15.333 -24.667 24.666 -26 27.999l10.5 10c3.66699 3.33301 13.5 11.666 29.5 24.999l19 14h223l21 -20c13.333 -13.333 21 -23 23 -29zM45 697.002
c4 12.667 8.66699 22.002 14 28.002l7 7l72 -78l-21 -187l-33 -26l-36 -26c-2 1.33301 -3.66699 2.66602 -5 3.99902c-3.33301 3.33301 -7.33301 8.66602 -12 15.999l-11 19zM416 86.0039c-0.666992 -4.66699 -1.33398 -7.66602 -2.00098 -8.99902
c-3.33301 -8.66699 -10.666 -17.667 -21.999 -27c-4.66699 1.33301 -17.667 13.666 -39 36.999l-33 36l24 217l25 25c18 16 28.667 24 32 24c4 0 12.667 -5.33301 26 -16l18 -15z" />
    <glyph glyph-name="bracketright" unicode="]" horiz-adv-x="492" 
d="M80 745l8 7c6 4 13.333 6.66699 22 8h280l17 -5c11.333 -4 17 -8.66699 17 -14c0 -4 -11.333 -18.667 -34 -44l-34 -37h-198zM380 35l-8.99805 -9c-6.66699 -6 -12.334 -9.33301 -17.001 -10h-296c-8.66699 0 -17.334 2.66699 -26.001 8l-11 9l73 76h216zM444.002 439
l-18 -15c-12 -10 -19.667 -15 -23 -15c-4 0.666992 -14.667 9.66699 -32 27l-23 25l25 191l31 37c21.333 24 34 36 38 36s10.333 -6.33301 19 -19l11 -19zM416.002 86c-0.666992 -4.66699 -1.33398 -7.66602 -2.00098 -8.99902
c-3.33301 -8.66699 -10.666 -17.667 -21.999 -27c-4.66699 1.33301 -17.667 13.666 -39 36.999l-33 36l24 217l25 25c18 16 28.667 24 32 24c4 0 12.667 -5.33301 26 -16l18 -15z" />
    <glyph glyph-name="nonbreakingspace" unicode="&#xa0;" horiz-adv-x="200" 
 />
    <glyph glyph-name="ydieresis" unicode="&#xff;" horiz-adv-x="300" 
d="M200 781l-52 -157.999c-2 -6 -6 -9.66699 -12 -11c-4 0 -6.66699 3 -8 9l-6 104c0 6 3.33301 9 10 9c6 0 9 -3 9 -9l4 -48l36 109c0 3.33301 3 5.66602 9 6.99902c8 0 11.333 -4 10 -12zM261 602.001c-4.66699 -3.33301 -11.999 -5.66992 -21.999 -7.00293l-28 1l-23 -2
c-4 -1.33301 -7 -1.16602 -9 0.500977s-2.66699 5.5 -2 11.5c4 14 13 26.833 27 38.5s23 22.167 27 31.5l2 12c0 4 -1.33301 6.33301 -4 7l-11 2c-4.66699 0 -8.33398 -0.666992 -11.001 -2c-1.33301 -3.33301 -2 -5.66602 -2 -6.99902c2 -3.33301 2 -6.33301 0 -9
s-5.33301 -4.66699 -10 -6c-3.33301 0 -6 1.66699 -8 5l-1 8c0 8 4.16699 14.833 12.5 20.5s17.166 8.5 26.499 8.5c6.66699 0 12.834 -2.16699 18.501 -6.5s8.83398 -11.166 9.50098 -20.499l-3 -17c-2 -9.33301 -9.33301 -19.333 -22 -30s-21.334 -19.667 -26.001 -27
l15 -1h15c7.33301 0 12 1 14 3c4 4.66699 8.66699 4.66699 14 0c4.66699 -3.33301 5 -8 1 -14zM102.001 629.997l-42.0029 -6c-5.33301 0 -8.66602 3 -9.99902 9l9 115c0 4 3 6.66699 9 8c6.66699 0 10.334 -3.66699 11.001 -11l-9 -100l30 3
c6.66699 0.666992 10.334 -2.33301 11.001 -9c0 -6 -3 -9 -9 -9z" />
    <glyph glyph-name=".null" horiz-adv-x="0" 
 />
    <glyph glyph-name="nonmarkingreturn" horiz-adv-x="200" 
 />
  </font>
</defs>
</svg>
